Loading...
Error

Скачать Барбузы – секретные агенты / Les Barbouzes (Жорж Лотнер) [1964, боевик, триллер, комедия, DVDRip] [MVO] торрент без регистрации

 
Статистика раздачи
Размер:  690 MB   |    Скачан:  123 раза
Сидов:  1  [  0 KB/s  ]  
 
Автор Сообщение

Василий Петров

[] 


Барбузы – секретные агенты / Les Barbouzes


Год выпуска: 1964
Выпущено: Франция, Италия
Жанр: боевик, триллер, комедия
Продолжительность: 01:43:01
Перевод: Профессиональный (многоголосый)
Субтитры: нет

Режиссер: Жорж Лотнер

В ролях: Лино Вентура, Франсис Бланш, Бернар Блие, Мирей Дарк, Джесс Хан, Андре Вебер, Луи Арбесье, Жак Балютен, Франсуаза Жире, Вайолетт Марсо

Описание: Внезапно исчезает крупный международный воротила и торговец оружием родом то ли из Одессы, то ли из Тегерана, за которым долго охотились полиция и секретные службы всех великих держав мира.

За несколько лет до смерти этот парень начал скупать в массовом порядке патенты на самые опасные виды вооружений.

После его кончины в публичном доме Парижа, барбузы (так называют во Франции секретных агентов) изо всех стран мира по поручению своих правительств начинают искать смертоносные документы в… поместье очень даже симпатичной, дочки покойного. Среди них и агент, представляющий интересы Франции.







Качество: DVDRip
Формат: AVI
Видео кодек: DivX
Аудио кодек: MP3
Видео: 640x400 (16:10), 25.000 fps, 801 Kbps
Аудио: 128 Kbps, 2 ch, 48.0 kHz, CBR

Релиз от:

Код:

Общее
Полное имя                               : Barbouzes, Les.avi
Формат                                   : AVI
Формат/Информация                        : Audio Video Interleave
Размер файла                             : 690 Мбайт
Продолжительность                        : 1 ч. 43 м.
Общий поток                              : 937 Кбит/сек
Название фильма                          : Barbouzes, Les
Программа кодирования                    : VirtualDubMod 1.5.4.1 (build 2178/release)VirtualDubMod build 2178/release
Правообладатель                          : для портала www.uralmix.ru

Видео
Идентификатор                            : 0
Формат                                   : MPEG-4 Visual
Параметр BVOP формата                    : 1
Параметр QPel формата                    : Нет
Параметр GMC формата                     : Без точки перехода
Параметр матрицы формата                 : Default (H.263)
Режим смешивания                         : Сжатый битовый поток
Идентификатор кодека                     : DX50
Идентификатор кодека/Подсказка           : DivX 5
Продолжительность                        : 1 ч. 43 м.
Битрейт                                  : 801 Кбит/сек
Ширина                                   : 640 пикселей
Высота                                   : 400 пикселей
Соотношение сторон                       : 16:10
Частота кадров                           : 25,000 кадров/сек
Цветовое пространство                    : YUV
Субдискретизация насыщенности            : 4:2:0
Битовая глубина                          : 8 бит
Тип развёртки                            : Прогрессивная
Метод сжатия                             : С потерями
Бит/(Пиксели*Кадры)                      : 0.125
Размер потока                            : 591 Мбайт (86%)
Библиотека кодирования                   : DivX 6.7.0 (UTC 2007-09-20)

Аудио
Идентификатор                            : 1
Формат                                   : MPEG Audio
Версия формата                           : Version 1
Профиль формата                          : Layer 3
Режим                                    : Joint stereo
Расширение режима                        : MS Stereo
Идентификатор кодека                     : 55
Идентификатор кодека/Подсказка           : MP3
Продолжительность                        : 1 ч. 43 м.
Вид битрейта                             : Постоянный
Битрейт                                  : 128 Кбит/сек
Каналы                                   : 2 канала
Частота                                  : 48,0 КГц
Метод сжатия                             : С потерями
Размер потока                            : 94,3 Мбайт (14%)
Выравнивание                             : Соединение по промежуткам
Продолжительность промежутка             : 80  мс. (2,00 видеокадра)
Время предзагрузки промежутка            : 504  мс.
Библиотека кодирования                   : LAME3.97
Настройки программы                      : -m j -V 4 -q 2 -lowpass 17 -b 128
Язык                                     : Не определен / Russian





Скачать Барбузы.–.секретные.агенты.Les.Barbouzes.(Жорж.Лотнер).[1964.боевик.триллер.комедия.DVDRip].[MVO].torrent без регистрации
Золото ЗОЛОТАЯ РАЗДАЧА! СКАЧАННОЕ НЕ ЗАСЧИТЫВАЕТСЯ! Золото
Дата: Зарегистрирован   [ Тип: внутренний ] Как тут cкачать?
MAGNET ссылка
MAGNET ссылка


Скачать .torrent

14 KB

Статус: проверено DHT
Скачан: торрент - 123 раз, раздача полностью - 1 раз
Размер: 690 MB
Оценка:  - (Голосов: 0)
Поблагодарили: 1
Поделиться ссылкой на эту раздачу с друзьями:
В контактеFacebookОдноклассникиTwitterLivejournalМой МирLiveinternet
 

 
Показать сообщения:    


Вы не можете начинать темы
Вы не можете отвечать на сообщения
Вы не можете редактировать свои сообщения
Вы не можете удалять свои сообщения
Вы не можете голосовать в опросах
Вы не можете прикреплять файлы к сообщениям
Вы можете скачивать файлы