Loading...
Error

Скачать Ип Ман / Yip Man (Уилсон Ип) [2008, боевик, драма, биография, история, BDRip-AVC] [AVO](Ю.Сербин)+[Sub] торрент без регистрации

 
Статистика раздачи
Размер:  1,48 GB   |    Скачан:  179 раз
Сидов:  1  [  0 KB/s  ]  
 
Автор Сообщение

Marsianka

[] 

Ип Ман / Yip Man (2008) BDRip-AVC [480p] | iPhone | P1


Название: Ип Ман
Оригинальное название: Yip Man
Год выхода: 2008
Жанр: боевик, драма, биография, история
Режиссер: Уилсон Ип
В ролях: Донни Ен, Саймон Ям, Ка Танг Лам, Фан Сю-Вонг, Линн Хунг, Хироюки Икеучи, Ю Хин, Чен Зи Хуи, Ю-Нам Вонг, Чжан Боа

О фильме:
Ип Ман признанный мастер кунг фу, живущий в Фуошане, городе, славном своими школами боевых искусств. Ип Ман практикует Вин Чун и хотя является сильнейшим бойцом города, своей школы у него нет, и он не берет учеников. Дома он проводит лишь легкие спарринги с приятелями, чтобы указать на ошибки друг друга. Проходят годы, Китай захватывают воинственные японцы, и Ип Ман оказывается одним из немногих, кто даже в жесточайших условиях оккупации не забывает о чести, достоинстве и, конечно же, мудрости, которую несет в себе кунг фу.



Страна: Гонконг, Китай
Студия: Y Beijing ShengShi HuaRei Film Investment & Management Co., China Film Co-Production Corporation, Mandarin Films Distribution
Продолжительность: 01:46:21
Перевод: Русский профессиональный одноголосый закадровый

Файл
Кодек: H.264
Качество: BDRip-AVC 480p iPhone
Видео: 640x364 (851x364) at 23.976 fps, AVC at 1800 kbps
1: 48 kHz, AAC 2.0, 180 kbps - Русский авторский одноголосый закадровый (Ю.Сербин)

Субтитры: Английские

Sort Name: Ip Man
XID: Apple:vendor_id:2008-409507
Content ID: 549476281
Copyright: Y Beijing ShengShi HuaRei Film Investment & Management Co., China Film Co-Production Corporation, Mandarin Films Distribution
ScreenWriters: Эдмонд Вонг
Producers: Бак-Минг Вонг
Director: Уилсон Ип
Cast: Донни Ен, Саймон Ям, Ка Танг Лам, Фан Сю-Вонг, Линн Хунг, Хироюки Икеучи, Ю Хин, Чен Зи Хуи, Ю-Нам Вонг, Чжан Бо
Rating: R
Long Deion: Ип Ман признанный мастер кунг фу, живущий в Фуошане, городе, славном своими школами боевых искусств. Ип Ман практикует Вин Чун и хотя является сильнейшим бойцом города, своей школы у него нет, и он не берет учеников. Дома он проводит лишь легкие спарринги с приятелями, чтобы указать на ошибки друг друга. Проходят годы, Китай захватывают воинственные японцы, и Ип Ман оказывается одним из немногих, кто даже в жесточайших условиях оккупации не забывает о чести, достоинстве и, конечно же, мудрости, которую несет в себе кунг фу.

Behind every great man there lies a teacher, and this was certainly true of Bruce Lee, who claimed as his mentor a martial arts expert named Ip Man (1893-1972). A genius of Wushu (or the Chinese martial arts school), Ip Man grew up in a China nearly ripped to pieces by racial hatred, nationalistic strife and warfare. He rose like a phoenix above these ashes, however, courtesy of his participation in matches against various Wushu masters and kung-fun warriors - ultimately training martial arts icons such as Lee. This biopic starring Donnie Yen and directed by Wilson Yip dramatizes Ip's life story.
Deion: Ип Ман признанный мастер кунг фу, живущий в Фуошане, городе, славном своими школами боевых искусств. Ип Ман практикует Вин Чун и хотя является сильнейшим бойцом города, своей школы у него нет, и он не берет учеников.
Release Date: 2010-01-01T08:00:00Z
Genre: Action & Adventure
Artist: Уилсон Ип
Name: Ип Ман
Comments: «The celebrated Kung Fu master of Bruce Lee»

General
Complete name : C:CREATEx264yuvoutYip Man.2008 (SD).m4v
Format : MPEG-4
Codec ID : M4V
File size : 1.48 GiB
Duration : 1h 46mn
Overall bit rate mode : Variable
Overall bit rate : 1 990 Kbps
Movie name : Ип Ман
Performer : Уилсон Ип
Genre : Action & Adventure
Recorded date : 2010-01-01T08:00:00Z
Encoded date : UTC 2013-07-26 07:03:54
Tagged date : UTC 2013-07-27 08:54:41
Copyright : Y Beijing ShengShi HuaRei Film Investment & Management Co., China Film Co-Production Corporation, Mandarin Films Distribution
Cover : Yes
Comment : «The celebrated Kung Fu master of Bruce Lee»
iTunEXTC : mpaa|R|400|

sonm : Ip Man
desc : Ип Ман признанный мастер кунг фу, живущий в Фуошане, городе, славном своими школами боевых искусств. Ип Ман практикует Вин Чун и хотя является сильнейшим бойцом города, своей школы у него нет, и он не берет учеников.
ldes : Ип Ман признанный мастер кунг фу, живущий в Фуошане, городе, славном своими школами боевых искусств. Ип Ман практикует Вин Чун и хотя является сильнейшим бойцом города, своей школы у него нет, и он не берет учеников. Дома он проводит лишь легкие спарринги с приятелями, чтобы указать на ошибки друг друга. Проходят годы, Китай захватывают воинственные японцы, и Ип Ман оказывается одним из немногих, кто даже в жесточайших условиях оккупации не забывает о чести, достоинстве и, конечно же, мудрости, которую несет в себе кунг фу. / Behind every great man there lies a teacher, and this was certainly true of Bruce Lee, who claimed as his mentor a martial arts expert named Ip Man (1893-1972). A genius of Wushu (or the Chinese martial arts school), Ip Man grew up in a China nearly ripped to pieces by racial hatred, nationalistic strife and warfare. He rose like a phoenix above these ashes, however, courtesy of his participation in matches against various Wushu masters and kung-fun warriors - ultimately training martial arts icons such as Lee. This biopic starring Donnie Yen and directed by Wilson Yip dramatizes Ip's life story.
hdvd : 0
stik : 9
akID : -1
sfID : 0
cnID : 549476281
xid : Apple:vendor_id:2008-409507

Video
ID : 1
Format : AVC
Format/Info : Advanced Video Codec
Format profile : Baseline@L3.0
Format settings, CABAC : No
Format settings, ReFrames : 2 frames
Codec ID : avc1
Codec ID/Info : Advanced Video Coding
Duration : 1h 46mn
Bit rate : 1 800 Kbps
Maximum bit rate : 6 749 Kbps
Width : 640 pixels
Height : 364 pixels
Display aspect ratio : 2.35:1
Frame rate mode : Constant
Frame rate : 24.000 fps
Color space : YUV
Chroma subsampling : 4:2:0
Bit depth : 8 bits
Scan type : Progressive
Bits/(Pixel*Frame) : 0.322
Stream size : 1.34 GiB (90%)
Writing library : x264 core 133 r2334+704+50 a7549b7 tMod [8-bit@4:2:0 X86_64]
Encoding settings : cabac=0 / ref=2 / deblock=1:-1:-1 / analyse=0x1:0x131 / me=tesa / subme=7 / psy=1 / fade_compensate=0.95 / psy_rd=0.85:0.20 / mixed_ref=1 / me_range=32 / chroma_me=1 / trellis=2 / 8x8dct=0 / cqm=0 / deadzone=21,11 / fast_pskip=0 / chroma_qp_offset=-3 / threads=12 / lookahead_threads=2 / sliced_threads=0 / nr=0 / decimate=0 / interlaced=0 / bluray_compat=0 / constrained_intra=0 / fgo=0 / bframes=0 / weightp=0 / keyint=250 / keyint_min=24 / scenecut=40 / intra_refresh=0 / rc_lookahead=120 / rc=2pass / mbtree=1 / bitrate=1800 / ratetol=1.0 / qcomp=0.75 / qpmin=0 / qpmax=69 / qpstep=4 / cplxblur=20.0 / qblur=0.5 / vbv_maxrate=5000 / vbv_bufsize=5000 / nal_hrd=none / ip_ratio=1.30 / aq=4:0.85 / aq-sensitivity=10.00 / aq-factor=1.00:1.00:1.00 / aq2=0 / aq3=1:[0.80:0.80]:[0.80:0.80]:[0.80:0.80]:[0.80:0.80] / aq3-sensitivity=10.00 / aq3-factor=[1.00:1.00]:[1.00:1.00]:[1.00:1.00] / aq3-boundary=205:56:9
Language : English
Encoded date : UTC 2013-07-26 07:03:54
Tagged date : UTC 2013-07-26 07:04:22
Matrix coefficients : BT.709

Audio
ID : 2
Format : AAC
Format/Info : Advanced Audio Codec
Format profile : LC
Codec ID : 40
Duration : 1h 46mn
Bit rate mode : Variable
Bit rate : 180 Kbps
Maximum bit rate : 227 Kbps
Channel(s) : 2 channels
Channel positions : Front: L R
Sampling rate : 48.0 KHz
Compression mode : Lossy
Stream size : 137 MiB (9%)
Title : AAC Russian VO (Serbin)
Language : Russian
Encoded date : UTC 2013-07-26 07:04:14
Tagged date : UTC 2013-07-26 07:04:22

Text
ID : 3
Format : Timed Text
Muxing mode : sbtl
Codec ID : tx3g
Duration : 1h 43mn
Bit rate mode : Variable
Bit rate : 39 bps
Stream size : 29.5 KiB (0%)
Title : Subtitle English
Language : English
Encoded date : UTC 2013-07-26 07:04:22
Tagged date : UTC 2013-07-26 07:04:22

Menu
ID : 5
Codec ID : text
Duration : 1h 46mn
Encoded date : UTC 2013-07-27 08:52:26
Tagged date : UTC 2013-07-27 08:52:26
Bit rate mode : CBR

x264 [info]: frame I:2398 Avg QP:18.83 size: 28372
x264 [info]: frame P:150747 Avg QP:20.77 size: 9069
x264 [info]: mb I I16..4: 23.9% 0.0% 76.1%
x264 [info]: mb P I16..4: 1.1% 0.0% 2.9% P16..4: 49.8% 20.1% 10.2% 2.7% 1.0% skip:12.3%
x264 [info]: coded y,uvDC,uvAC intra: 72.6% 70.1% 37.7% inter: 48.0% 33.2% 10.2%
x264 [info]: i16 v,h,dc,p: 39% 21% 8% 33%
x264 [info]: i4 v,h,dc,ddl,ddr,vr,hd,vl,hu: 26% 14% 12% 7% 9% 10% 7% 9% 5%
x264 [info]: i8c dc,h,v,p: 56% 14% 23% 7%
x264 [info]: ref P L0: 80.5% 19.5%
x264 [info]: kb/s:1799.36
В двух местах (00:12:13 и 01:36:31) небольшие "дефекты" картинки ( c BD).



Скачать Ип.Ман.Yip.Man.(Уилсон.Ип).[2008.боевик.драма.биография.история.BDRip-AVC].[AVO](Ю.Сербин)+[Sub].torrent без регистрации
Золото ЗОЛОТАЯ РАЗДАЧА! СКАЧАННОЕ НЕ ЗАСЧИТЫВАЕТСЯ! Золото
Дата: Зарегистрирован   [ Тип: внутренний ] Как тут cкачать?
MAGNET ссылка
MAGNET ссылка


Скачать .torrent

15 KB

Статус: проверено DHT
Скачан: торрент - 179 раз, раздача полностью - 91 раз
Размер: 1,48 GB
Оценка:  5 (Голосов: 1)
Поблагодарили: 3
Поделиться ссылкой на эту раздачу с друзьями:
В контактеFacebookОдноклассникиTwitterLivejournalМой МирLiveinternet
 

 

Алекс Бывалый

[] 

Зачётный фильмец - однозначно в коллекцию! ay
 
Показать сообщения:    


Вы не можете начинать темы
Вы не можете отвечать на сообщения
Вы не можете редактировать свои сообщения
Вы не можете удалять свои сообщения
Вы не можете голосовать в опросах
Вы не можете прикреплять файлы к сообщениям
Вы можете скачивать файлы