Loading...
Error

Скачать Река не течет вспять / River of No Return (Отто Преминджер, Жан Негулеско) [1954, приключения, вестерн, BDRip-AVC] [MVO]+[Sub] торрент без регистрации

 
Статистика раздачи
Размер:  1,33 GB   |    Скачан:  116 раз
Сидов:  1  [  0 KB/s  ]  
 
Автор Сообщение

Marsianka

[] 

Река не течет вспять / River of No Return (1954) BDRip-AVC | iPhone | P


Название: Река не течет вспять
Оригинальное название: River of No Return
Год выхода: 1954
Жанр: приключения, вестерн
Режиссер: Отто Преминджер, Жан Негулеско
В ролях: Роберт Митчум, Мэрилин Монро, Рори Кэлхун, Томми Реттиг, Мервин Вай, Дуглас Спенсер, Фред Олдрич, Клер Андре, Хэл Бэйлор, Дон Беддоу

О фильме:
Мэтт Коядер возвратившись из тюрьмы, где он отсидел за убийство одного негодяя, находит своего шестилетнего сына Марка в лагере американских переселенцев «дикого запада», где его приютила певица местного кабаре Кей. Мэтт забирает сына в свой новый дом у излучины горной реки, и решает начать новую жизнь среди бескрайних просторов северной Америки.



Страна: США
Студия: 20th Century Fox
Продолжительность: 01:30:56
Перевод: Русский профессиональный многоголосый закадровый

Файл
Кодек: H.264
Качество: BDRip-AVC 480p iPhone
Видео: 640x332@852x332 at 23.976 fps, AVC at 1700 kbps
1: 48 kHz, AAC 2.0, 192 kbps - Русский профессиональный многоголосый закадровый
2: 48 kHz, AAC 2.0, 192 kbps - Английский
Субтитры: Английские

General
Complete name : C:CREATE480outRiver of No Return.1954 (SD).m4v
Format : MPEG-4
Codec ID : M4V
File size : 1.33 GiB
Duration : 1h 30mn
Overall bit rate mode : Variable
Overall bit rate : 2 093 Kbps
Movie name : Река не течет вспять
Performer : Otto Preminger
Genre : Action & Adventure
Recorded date : UTC 1954-04-30 08:00:00
Encoded date : UTC 2014-02-10 15:41:11
Tagged date : UTC 2014-02-10 16:38:04
Copyright : Y 20th Century Fox Film Corporation, Metro-Goldwyn-Mayer Studios Inc
Cover : Yes
Comment : «Reckless, Roaring, Adventure of the Great Northwest Gold Rush Days!»
iTunEXTC : mpaa|Unrated|600|

sonm : River of No Return
desc : Мэтт Коядер возвратившись из тюрьмы, где он отсидел за убийство одного негодяя, находит своего шестилетнего сына Марка в лагере американских переселенцев "дикого запада", где его приютила певица местного кабаре Кей.
ldes : Мэтт Коядер возвратившись из тюрьмы, где он отсидел за убийство одного негодяя, находит своего шестилетнего сына Марка в лагере американских переселенцев "дикого запада", где его приютила певица местного кабаре Кей. Мэтт забирает сына в свой новый дом у излучины горной реки, и решает начать новую жизнь среди бескрайних просторов северной Америки. В это время Гарри, нечистый на руку дружок Кей, выигрывает в карты золотоносный участок в Консел Сити и предлагает девушке бросить все и умчаться с ним на плоту по реке, чтобы как можно быстрее застолбить золотую жилу, которую он получил обманом.
hdvd : 0
stik : 9
cnID : 318771952
xid : Apple:vendor_id:1954-11660

Video
ID : 1
Format : AVC
Format/Info : Advanced Video Codec
Format profile : Baseline@L3.0
Format settings, CABAC : No
Format settings, ReFrames : 2 frames
Codec ID : avc1
Codec ID/Info : Advanced Video Coding
Duration : 1h 30mn
Bit rate : 1 700 Kbps
Maximum bit rate : 6 592 Kbps
Width : 640 pixels
Height : 332 pixels
Display aspect ratio : 2.566
Frame rate mode : Constant
Frame rate : 23.976 fps
Color space : YUV
Chroma subsampling : 4:2:0
Bit depth : 8 bits
Scan type : Progressive
Bits/(Pixel*Frame) : 0.334
Stream size : 1.08 GiB (81%)
Title : River of No Return _1954_
Writing library : x264 core 140 r2377+40 929f149 tMod [8-bit@4:2:0 X86_64]
Encoding settings : cabac=0 / ref=2 / deblock=1:-2:-2 / analyse=0x1:0x131 / me=umh / subme=7 / psy=1 / fade_compensate=1.00 / psy_rd=1.05:0.15 / mixed_ref=1 / me_range=32 / chroma_me=1 / trellis=2 / 8x8dct=0 / cqm=0 / deadzone=21,11 / fast_pskip=0 / chroma_qp_offset=-3 / threads=12 / lookahead_threads=2 / sliced_threads=0 / nr=0 / decimate=0 / interlaced=0 / bluray_compat=0 / constrained_intra=0 / fgo=5 / bframes=0 / weightp=0 / keyint=250 / keyint_min=23 / scenecut=40 / intra_refresh=0 / rc_lookahead=120 / rc=2pass / mbtree=1 / bitrate=1700 / ratetol=1.0 / qcomp=0.60 / qpmin=0:0:0 / qpmax=69:69:69 / qpstep=4 / cplxblur=20.0 / qblur=0.5 / vbv_maxrate=5000 / vbv_bufsize=5000 / nal_hrd=none / filler=0 / ip_ratio=1.30 / aq=1:0.90 / aq-sensitivity=10.00 / aq-factor=1.00:1.00:1.00 / aq2=0 / aq3=1:[0.50:0.50]:[0.50:0.50]:[0.50:0.50]:[0.50:0.50] / aq3-sensitivity=10.00 / aq3-factor=[1.00:1.00]:[1.00:1.00]:[1.00:1.00] / aq3-boundary=205:56:9
Language : English
Encoded date : UTC 2014-02-10 15:41:11
Tagged date : UTC 2014-02-10 15:41:51
Matrix coefficients : BT.709

Audio #1
ID : 2
Format : AAC
Format/Info : Advanced Audio Codec
Format profile : LC
Codec ID : 40
Duration : 1h 30mn
Bit rate mode : Variable
Bit rate : 192 Kbps
Maximum bit rate : 222 Kbps
Channel(s) : 2 channels
Channel positions : Front: L R
Sampling rate : 48.0 KHz
Compression mode : Lossy
Stream size : 122 MiB (9%)
Title : MVO
Language : Russian
Encoded date : UTC 2014-02-10 15:26:12
Tagged date : UTC 2014-02-10 15:41:51

Audio #2
ID : 3
Format : AAC
Format/Info : Advanced Audio Codec
Format profile : LC
Codec ID : 40
Duration : 1h 30mn
Bit rate mode : Variable
Bit rate : 192 Kbps
Maximum bit rate : 224 Kbps
Channel(s) : 2 channels
Channel positions : Front: L R
Sampling rate : 48.0 KHz
Compression mode : Lossy
Stream size : 126 MiB (9%)
Title : Original
Language : English
Encoded date : UTC 2014-02-10 15:37:07
Tagged date : UTC 2014-02-10 15:41:51

Text
ID : 4
Format : Timed Text
Muxing mode : sbtl
Codec ID : tx3g
Duration : 1h 30mn
Bit rate mode : Variable
Bit rate : 54 bps
Stream size : 36.1 KiB (0%)
Title : Subtitle English
Language : English
Encoded date : UTC 2014-02-10 15:41:51
Tagged date : UTC 2014-02-10 15:41:51

Menu
ID : 5
Codec ID : text
Duration : 1h 30mn
Encoded date : UTC 2014-02-10 15:43:32
Tagged date : UTC 2014-02-10 15:43:32
Bit rate mode : CBR

Sort Name: River of No Return
XID: Apple:vendor_id:1954-11660
Content ID: 318771952
Copyright: Y 20th Century Fox Film Corporation, Metro-Goldwyn-Mayer Studios Inc
ScreenWriters: Фрэнк Фентон, Луис Лэнц
Producers: Стэнли Рубин
Director: Отто Преминджер, Жан Негулеско
Cast: Роберт Митчум, Мэрилин Монро, Рори Кэлхун, Томми Реттиг, Мервин Вай, Дуглас Спенсер, Фред Олдрич, Клер Андре, Хэл Бэйлор, Дон Беддоу
Rating: Unrated
Long Deion: Мэтт Коядер возвратившись из тюрьмы, где он отсидел за убийство одного негодяя, находит своего шестилетнего сына Марка в лагере американских переселенцев "дикого запада", где его приютила певица местного кабаре Кей. Мэтт забирает сына в свой новый дом у излучины горной реки, и решает начать новую жизнь среди бескрайних просторов северной Америки. В это время Гарри, нечистый на руку дружок Кей, выигрывает в карты золотоносный участок в Консел Сити и предлагает девушке бросить все и умчаться с ним на плоту по реке, чтобы как можно быстрее застолбить золотую жилу, которую он получил обманом.
Deion: Мэтт Коядер возвратившись из тюрьмы, где он отсидел за убийство одного негодяя, находит своего шестилетнего сына Марка в лагере американских переселенцев "дикого запада", где его приютила певица местного кабаре Кей. Мэтт забирает сына в свой новый д
Release Date: 1954-04-30T08:00:00Z
Genre: Action & Adventure
Artist: Otto Preminger
Name: Река не течет вспять
Comments: «Reckless, Roaring, Adventure of the Great Northwest Gold Rush Days!»



Скачать Река.не.течет.вспять.River.of.No.Return.(Отто.Преминджер.Жан.Негулеско).[1954.приключения.вестерн.BDRip-AVC].[MVO]+[Sub].torrent без регистрации
Золото ЗОЛОТАЯ РАЗДАЧА! СКАЧАННОЕ НЕ ЗАСЧИТЫВАЕТСЯ! Золото
Дата: Зарегистрирован   [ Тип: внутренний ] Как тут cкачать?
MAGNET ссылка
MAGNET ссылка


Скачать .torrent

14 KB

Статус: проверено DHT
Скачан: торрент - 116 раз, раздача полностью - 10 раз
Размер: 1,33 GB
Оценка:  5 (Голосов: 1)
Поблагодарили: 2
Поделиться ссылкой на эту раздачу с друзьями:
В контактеFacebookОдноклассникиTwitterLivejournalМой МирLiveinternet
 

 
Показать сообщения:    


Вы не можете начинать темы
Вы не можете отвечать на сообщения
Вы не можете редактировать свои сообщения
Вы не можете удалять свои сообщения
Вы не можете голосовать в опросах
Вы не можете прикреплять файлы к сообщениям
Вы можете скачивать файлы