Loading...
Error

Скачать Химера / Splice (Винченцо Натали) [2009, ужасы, фантастика, BDRip-AVC] [Dub]+[Sub] торрент без регистрации

 
Статистика раздачи
Размер:  1,51 GB   |    Скачан:  135 раз
Сидов:  2  [  0 KB/s  ]  
 
Автор Сообщение

Marsianka

[] 

Химера / Splice (2009) BDRip-AVC | iPhone | D


Название: Химера
Оригинальное название: Splice
Год выхода: 2009
Жанр: ужасы, фантастика
Режиссер: Винченцо Натали
В ролях: Эдриан Броуди, Сара Полли, Дэльфин Шанеак, Брэндон МакГибон, Симона Майканеску, Дэвид Хьюлетт, Эбигейл Чу, Джонатан Пэйн

О фильме:
Двое молодых ученых, занимающихся экспериментами по синтезу белка, решают в тайне от начальства создать гибрид человека и животного. Получившееся в результате существо они решают воспитывать как своего ребенка


Страна: Канада, Франция, США
Студия: Gaumont, Copperheart Entertainment, Dark Castle Entertainment
Продолжительность: 01:43:56
Перевод: Русский дублированный

Файл
Кодек: H.264
Качество: BDRip-AVC 480p iPhone
Видео: 640x480@851x480 at 23.976 fps, AVC at 1700 kbps
1: 48 kHz, AAC 2.0, 192 kbps - Русский дублированный
2: 48 kHz, AAC 2.0, 192 kbps - Английский
Субтитры: Английские

General
Complete name : C:CREATE480outSplice.2009 (SD).m4v
Format : MPEG-4
Codec ID : M4V
File size : 1.51 GiB
Duration : 1h 43mn
Overall bit rate mode : Variable
Overall bit rate : 2 085 Kbps
Movie name : Химера
Performer : Винченцо Натали
Genre : Horror
Recorded date : 2010-06-04T07:00:00Z
Encoded date : UTC 2013-09-11 15:08:47
Tagged date : UTC 2013-09-11 15:10:31
Copyright : Y Gaumont, Copperheart Entertainment, Dark Castle Entertainment
Cover : Yes
Comment : «Она человек только наполовину...»
iTunEXTC : mpaa|R|400|

sonm : Splice
desc : Двое ученых, Эльза и Клайв, пренебрегая морально-этическими категориями и уголовным кодексом, синтезировали ДНК человека и животного. В результате эксперимента на свет появилась девочка, впоследствии ставшая женщиной-химерой.
ldes : Двое ученых, Эльза и Клайв, пренебрегая морально-этическими категориями и уголовным кодексом, синтезировали ДНК человека и животного. В результате эксперимента на свет появилась девочка, впоследствии ставшая женщиной-химерой. С ней у создателей обнаруживается особая связь, грозящая им смертельной опасностью.
hdvd : 0
stik : 9
akID : -1
sfID : 0
cnID : 378468563
xid : Apple:vendor_id:2009-397244

Video
ID : 1
Format : AVC
Format/Info : Advanced Video Codec
Format profile : Baseline@L3.0
Format settings, CABAC : No
Format settings, ReFrames : 2 frames
Codec ID : avc1
Codec ID/Info : Advanced Video Coding
Duration : 1h 43mn
Bit rate : 1 700 Kbps
Maximum bit rate : 8 873 Kbps
Width : 640 pixels
Height : 480 pixels
Display aspect ratio : 16:9
Frame rate mode : Constant
Frame rate : 23.976 fps
Color space : YUV
Chroma subsampling : 4:2:0
Bit depth : 8 bits
Scan type : Progressive
Bits/(Pixel*Frame) : 0.231
Stream size : 1.23 GiB (81%)
Title : Splice (2009)
Writing library : x264 core 138 r2359+704+48 3f879a0 tMod [8-bit@4:2:0 X86_64]
Encoding settings : cabac=0 / ref=2 / deblock=1:-1:-1 / analyse=0x1:0x131 / me=tesa / subme=7 / psy=1 / fade_compensate=0.10 / psy_rd=0.80:0.15 / mixed_ref=1 / me_range=32 / chroma_me=1 / trellis=2 / 8x8dct=0 / cqm=0 / deadzone=21,11 / fast_pskip=0 / chroma_qp_offset=-3 / threads=12 / lookahead_threads=2 / sliced_threads=0 / nr=0 / decimate=0 / interlaced=0 / bluray_compat=0 / constrained_intra=0 / fgo=5 / bframes=0 / weightp=0 / keyint=250 / keyint_min=23 / scenecut=40 / intra_refresh=0 / rc_lookahead=120 / rc=2pass / mbtree=1 / bitrate=1700 / ratetol=1.0 / qcomp=0.70 / qpmin=0:0:0 / qpmax=69:69:69 / qpstep=4 / cplxblur=20.0 / qblur=0.5 / vbv_maxrate=5000 / vbv_bufsize=5000 / nal_hrd=none / ip_ratio=1.30 / aq=4:0.90 / aq-sensitivity=10.00 / aq-factor=1.00:1.00:1.00 / aq2=0 / aq3=0
Language : English
Encoded date : UTC 2013-09-11 15:08:47
Tagged date : UTC 2013-09-11 15:09:08
Matrix coefficients : BT.709

Audio #1
ID : 2
Format : AAC
Format/Info : Advanced Audio Codec
Format profile : LC
Codec ID : 40
Duration : 1h 43mn
Bit rate mode : Variable
Bit rate : 196 Kbps
Maximum bit rate : 236 Kbps
Channel(s) : 2 channels
Channel positions : Front: L R
Sampling rate : 48.0 KHz
Compression mode : Lossy
Stream size : 146 MiB (9%)
Title : AAC Russian DUB
Language : Russian
Encoded date : UTC 2013-09-11 15:08:59
Tagged date : UTC 2013-09-11 15:09:08

Audio #2
ID : 3
Format : AAC
Format/Info : Advanced Audio Codec
Format profile : LC
Codec ID : 40
Duration : 1h 43mn
Bit rate mode : Variable
Bit rate : 185 Kbps
Maximum bit rate : 233 Kbps
Channel(s) : 2 channels
Channel positions : Front: L R
Sampling rate : 48.0 KHz
Compression mode : Lossy
Stream size : 138 MiB (9%)
Title : AAC English
Language : English
Encoded date : UTC 2013-09-11 15:09:03
Tagged date : UTC 2013-09-11 15:09:08

Text
ID : 4
Format : Timed Text
Muxing mode : sbtl
Codec ID : tx3g
Duration : 1h 43mn
Bit rate mode : Variable
Bit rate : 47 bps
Stream size : 36.0 KiB (0%)
Title : Subtitle English SHD
Language : English
Encoded date : UTC 2013-09-11 15:09:08
Tagged date : UTC 2013-09-11 15:09:08

Menu
ID : 5
Codec ID : text
Duration : 1h 43mn
Encoded date : UTC 2013-09-11 15:09:25
Tagged date : UTC 2013-09-11 15:09:25
Bit rate mode : CBR

Sort Name: Splice
XID: Apple:vendor_id:2009-397244
Content ID: 378468563
Copyright: Y Gaumont, Copperheart Entertainment, Dark Castle Entertainment
ScreenWriters: Винченцо Натали, Антониетта Терри Брайант, Даг Тейлор
Producers: Стивен Хобан, Джозеф Боччиа, Ив Шевалье
Director: Винченцо Натали
Cast: Эдриан Броуди, Сара Полли, Дэльфин Шанеак, Брэндон МакГибон, Симона Майканеску, Дэвид Хьюлетт, Эбигейл Чу, Джонатан Пэйн
Rating: R
Long Deion: Двое ученых, Эльза и Клайв, пренебрегая морально-этическими категориями и уголовным кодексом, синтезировали ДНК человека и животного. В результате эксперимента на свет появилась девочка, впоследствии ставшая женщиной-химерой. С ней у создателей обнаруживается особая связь, грозящая им смертельной опасностью.
Deion: Двое ученых, Эльза и Клайв, пренебрегая морально-этическими категориями и уголовным кодексом, синтезировали ДНК человека и животного. В результате эксперимента на свет появилась девочка, впоследствии ставшая женщиной-химерой.
Release Date: 2010-06-04T07:00:00Z
Genre: Horror
Artist: Винченцо Натали
Name: Химера
Comments: «Она человек только наполовину...»

x264 [info]: frame I:2727 Avg QP:16.05 size: 19499
x264 [info]: frame P:146810 Avg QP:18.48 size: 8625
x264 [info]: mb I I16..4: 47.3% 0.0% 52.7%
x264 [info]: mb P I16..4: 1.0% 0.0% 0.6% P16..4: 45.0% 17.9% 14.1% 1.3% 0.8% skip:19.4%
x264 [info]: coded y,uvDC,uvAC intra: 45.8% 51.8% 29.1% inter: 34.1% 25.7% 10.3%
x264 [info]: i16 v,h,dc,p: 49% 12% 8% 31%
x264 [info]: i4 v,h,dc,ddl,ddr,vr,hd,vl,hu: 28% 15% 16% 7% 8% 9% 6% 7% 4%
x264 [info]: i8c dc,h,v,p: 62% 12% 18% 7%
x264 [info]: ref P L0: 74.3% 25.7%
x264 [info]: kb/s:1692.29



Скачать Химера.Splice.(Винченцо.Натали).[2009.ужасы.фантастика.BDRip-AVC].[Dub]+[Sub].torrent без регистрации
Золото ЗОЛОТАЯ РАЗДАЧА! СКАЧАННОЕ НЕ ЗАСЧИТЫВАЕТСЯ! Золото
Дата: Зарегистрирован   [ Тип: внешний ] Как тут cкачать?
MAGNET ссылка
MAGNET ссылка


Скачать .torrent

16 KB

Статус: проверено DHT
Скачан: торрент - 135 раз, раздача полностью - 189 раз
Размер: 1,51 GB
Оценка:  - (Голосов: 0)
Поблагодарили: 2
Поделиться ссылкой на эту раздачу с друзьями:
В контактеFacebookОдноклассникиTwitterLivejournalМой МирLiveinternet
 

 
Показать сообщения:    


Вы не можете начинать темы
Вы не можете отвечать на сообщения
Вы не можете редактировать свои сообщения
Вы не можете удалять свои сообщения
Вы не можете голосовать в опросах
Вы не можете прикреплять файлы к сообщениям
Вы можете скачивать файлы