Loading...
Error

Скачать Трансформеры: Месть падших / Transformers: Revenge of the Fallen (Майкл Бэй) [2009, Фантастика, боевик, приключения, HDRip] [IMAX Version] [AVO] (А.Гаврилов) торрент без регистрации

 
Статистика раздачи
Размер:  2,18 GB   |    Скачан:  333 раза
Сидов:  1  [  0 KB/s  ]  
 
Автор Сообщение

leon030982

[] 

Трансформеры: Месть падших / Transformers: Revenge of the Fallen




Год выхода:2009
Жанр: Фантастика, боевик, приключения
Страна:США
Продолжительность:02:30:24
Перевод: Авторский (одноголосный, закадровый)[А.Гаврилов]

Режиссер: Майкл Бэй / Michael Bay

В ролях: Меган Фокс, Шайа ЛаБаф, Изабель Лукас, Джош Дюамель, Хьюго Уивинг, Майкл Пападжон, Джон Туртурро, Америка Оливо, Рэйн Уилсон, Фрэнк Уэлкер

О фильме: Прошло два года с тех пор, как юный Сэм Уитвикки спас Вселенную, предотвратив глобальную битву между враждующими воинственными расами инопланетных роботов. Несмотря на свои героические подвиги, Сэм остается обычным подростком с обычными проблемами поступление в колледж и родителями. Разумеется, отъезд будет тяжело воспринят лучшим другом, роботом телохранителем Бамблби.



Качество: HDRip
Формат: AVI
Видео кодек: XviD
Аудио кодек: AC3
Видео: 720x400 (1.80:1), 23.976 fps, XviD build 50 ~1619 kbps avg, 0.23 bit/pixel
Аудио: 48 kHz, AC3 Dolby Digital, 3/2 (L,C,R,l,r) + LFE ch, ~448.00 kbps avg
General
Complete name : E:\INTERNET\Transformers_Revenge of the Fallen.2009.HDRip.[IMAX] [Gavrilov].avi
Format : AVI
Format/Info : Audio Video Interleave
Format profile : OpenDML
File size : 2.18 GiB
Duration : 2h 30mn
Overall bit rate : 2 074 Kbps
Writing application : VirtualDubMod 1.5.10.3 (build 2550/release)
Writing library : VirtualDubMod build 2550/release

Video
ID : 0
Format : MPEG-4 Visual
Format profile : Advanced Simple@L5
Format settings, BVOP : 1
Format settings, QPel : No
Format settings, GMC : No warppoints
Format settings, Matrix : Custom
Codec ID : XVID
Codec ID/Hint : XviD
Duration : 2h 30mn
Bit rate : 1 615 Kbps
Width : 720 pixels
Height : 400 pixels
Display aspect ratio : 16:9
Frame rate : 23.976 fps
Color space : YUV
Chroma subsampling : 4:2:0
Bit depth : 8 bits
Scan type : Progressive
Compression mode : Lossy
Bits/(Pixel*Frame) : 0.234
Stream size : 1.70 GiB (78%)
Writing library : XviD 1.2.1 (UTC 2008-12-04)

Audio
ID : 1
Format : AC-3
Format/Info : Audio Coding 3
Mode extension : CM (complete main)
Codec ID : 2000
Duration : 2h 30mn
Bit rate mode : Constant
Bit rate : 448 Kbps
Channel(s) : 6 channels
Channel positions : Front: L C R, Side: L R, LFE
Sampling rate : 48.0 KHz
Bit depth : 16 bits
Compression mode : Lossy
Stream size : 482 MiB (22%)
Alignment : Split accross interleaves
Interleave, duration : 42 ms (1.00 video frame)
Interleave, preload duration : 500 ms

Данная версия фильма включает IMAX сцены. Она длиннее почти на 30 секунд, IMAX сцены это сцены снятые на специальную IMAX камеру они имеют разрешение 1280х720, именно по-этому видеоряд с "черными полями". Обрезать нет смысла, ибо весь смысл IMAX версии пропадет. На просмотр никак не повлияет, так что качайте спокойно.



Скачать Трансформеры.Месть.падших.Transformers.Revenge.of.the.Fallen.(Майкл.Бэй).[2009.Фантастика.боевик.приключения.HDRip].[IMAX.Version].[AVO].(А.Гаврилов).torrent без регистрации
Золото ЗОЛОТАЯ РАЗДАЧА! СКАЧАННОЕ НЕ ЗАСЧИТЫВАЕТСЯ! Золото
Дата: Зарегистрирован   [ Тип: внутренний ] Как тут cкачать?
MAGNET ссылка
MAGNET ссылка


Скачать .torrent

11 KB

Статус: проверено DHT
Скачан: торрент - 333 раз, раздача полностью - 67 раз
Размер: 2,18 GB
Оценка:  5 (Голосов: 1)
Поблагодарили: 2
Поделиться ссылкой на эту раздачу с друзьями:
В контактеFacebookОдноклассникиTwitterLivejournalМой МирLiveinternet
 

 

mihafs

[] 

народ у кого то еще остался этот фильмец?
 
Показать сообщения:    


Вы не можете начинать темы
Вы не можете отвечать на сообщения
Вы не можете редактировать свои сообщения
Вы не можете удалять свои сообщения
Вы не можете голосовать в опросах
Вы не можете прикреплять файлы к сообщениям
Вы можете скачивать файлы