Loading...
Error

Скачать Квартирка Джо / Joe's Apartment (Джон Пейсон) [1996, мюзикл, фэнтези, комедия, DVDRip] [Широкоформатная версия] [MVO] (Varus Video) + 2x[AVO] торрент без регистрации

 
Статистика раздачи
Размер:  1,45 GB   |    Скачан:  222 раза
Сидов:  1  [  0 KB/s  ]  
 
Автор Сообщение

leon030982

[] 

Квартирка Джо / Joe's Apartment / Широкоформатная версия
Страна: США
Жанр: мюзикл, фэнтези, комедия
Год выпуска: 1996
Продолжительность: 01:16:36
Перевод 1: Профессиональный (многоголосый закадровый) Varus Video
Перевод 2: Авторский (одноголосый закадровый) Павел Санаев
Перевод 3: Авторский (одноголосый закадровый) Сергей Визгунов
Cубтитры: нет
Оригинальная аудиодорожка: английский
Режиссер: Джон Пейсон / John Payson

В ролях: Джерри О'Коннелл, Миган Уорд, Джим Тернер, Сандра Дентон, Роберт Вон, Дон Хо, Джим Стерлинг, Шик Махмуд-Бей...
Описание: Джо Гротовски, молодой человек прибывает в Нью-Йорк и поселяется в доме, предназначенном на снос. Этот дом — пристанище нищих и подозрительных типов и, главное, — тараканов. Тараканы, выступающие в картине крупным планом, черные и рыжие, — они могут говорить, петь, танцевать и многое другое.
И получается, что именно тараканы становятся подлинными хозяевами квартиры полюбившегося им Джо, равно как и судьбы самого молодого человека и его девушки…

Сэмпл: http://multi-up.com/706337
Качество видео: DVDRip
Формат видео: AVI
Видео: 704x400 (1.76:1), 25 fps, XviD build 50 ~1917 kbps avg, 0.27 bit/pixel
Аудио 1: 48 kHz, AC3 Dolby Digital, 2/0 (L,R) ch, ~192 kbps MVO Varus Video
Аудио 2: 48 kHz, AC3 Dolby Digital, 2/0 (L,R) ch, ~192 kbps Павел Санаев
Аудио 3: 48 kHz, AC3 Dolby Digital, 2/0 (L,R) Surround Encoded ch, ~192 kbps Сергей Визгунов
Аудио 4: 48 kHz, AC3 Dolby Digital, 2/0 (L,R) Surround Encoded ch, ~192 kbps Eng
General
Complete name : C:\Joe's Apartment.avi
Format : AVI
Format/Info : Audio Video Interleave
File size : 1.45 GiB
Duration : 1h 16mn
Overall bit rate : 2 712 Kbps
Writing application : VirtualDubMod 1.5.10.3 (build 2550/release)
Writing library : VirtualDubMod build 2550/release
Video
ID : 0
Format : MPEG-4 Visual
Format profile : Advanced Simple@L5
Format settings, BVOP : 2
Format settings, QPel : No
Format settings, GMC : No warppoints
Format settings, Matrix : Default (H.263)
Codec ID : XVID
Codec ID/Hint : XviD
Duration : 1h 16mn
Bit rate : 1 920 Kbps
Width : 704 pixels
Height : 400 pixels
Display aspect ratio : 16:9
Frame rate : 25.000 fps
Color space : YUV
Chroma subsampling : 4:2:0
Bit depth : 8 bits
Scan type : Progressive
Compression mode : Lossy
Bits/(Pixel*Frame) : 0.273
Stream size : 1.03 GiB (71%)
Writing library : XviD 1.2.1 (UTC 2008-12-04)
Audio #1
ID : 1
Format : AC-3
Format/Info : Audio Coding 3
Mode extension : CM (complete main)
Format settings, Endianness : Big
Codec ID : 2000
Duration : 1h 16mn
Bit rate mode : Constant
Bit rate : 192 Kbps
Channel(s) : 2 channels
Channel positions : Front: L R
Sampling rate : 48.0 KHz
Bit depth : 16 bits
Compression mode : Lossy
Stream size : 105 MiB (7%)
Alignment : Split accross interleaves
Interleave, duration : 40 ms (1.00 video frame)
Interleave, preload duration : 500 ms
Audio #2
ID : 2
Format : AC-3
Format/Info : Audio Coding 3
Mode extension : CM (complete main)
Format settings, Endianness : Big
Codec ID : 2000
Duration : 1h 16mn
Bit rate mode : Constant
Bit rate : 192 Kbps
Channel(s) : 2 channels
Channel positions : Front: L R
Sampling rate : 48.0 KHz
Bit depth : 16 bits
Compression mode : Lossy
Stream size : 105 MiB (7%)
Alignment : Split accross interleaves
Interleave, duration : 40 ms (1.00 video frame)
Interleave, preload duration : 500 ms
Audio #3
ID : 3
Format : AC-3
Format/Info : Audio Coding 3
Format profile : Dolby Digital
Mode extension : CM (complete main)
Format settings, Endianness : Big
Codec ID : 2000
Duration : 1h 16mn
Bit rate mode : Constant
Bit rate : 192 Kbps
Channel(s) : 2 channels
Channel positions : Front: L R
Sampling rate : 48.0 KHz
Bit depth : 16 bits
Compression mode : Lossy
Stream size : 105 MiB (7%)
Alignment : Split accross interleaves
Interleave, duration : 40 ms (1.00 video frame)
Interleave, preload duration : 500 ms
Audio #4
ID : 4
Format : AC-3
Format/Info : Audio Coding 3
Format profile : Dolby Digital
Mode extension : CM (complete main)
Format settings, Endianness : Big
Codec ID : 2000
Duration : 1h 16mn
Bit rate mode : Constant
Bit rate : 192 Kbps
Channel(s) : 2 channels
Channel positions : Front: L R
Sampling rate : 48.0 KHz
Bit depth : 16 bits
Compression mode : Lossy
Stream size : 105 MiB (7%)
Alignment : Split accross interleaves
Interleave, duration : 40 ms (1.00 video frame)
Interleave, preload duration : 500 ms



Скачать Квартирка.Джо.Joe's.Apartment.(Джон.Пейсон).[1996.мюзикл.фэнтези.комедия.DVDRip].[Широкоформатная.версия].[MVO].(Varus.Video).+.2x[AVO].torrent без регистрации
Золото ЗОЛОТАЯ РАЗДАЧА! СКАЧАННОЕ НЕ ЗАСЧИТЫВАЕТСЯ! Золото
Дата: Зарегистрирован   [ Тип: внутренний ] Как тут cкачать?
MAGNET ссылка
MAGNET ссылка


Скачать .torrent

15 KB

Статус: проверено DHT
Скачан: торрент - 222 раз, раздача полностью - 75 раз
Размер: 1,45 GB
Оценка:  5 (Голосов: 1)
Поблагодарили: 2
Поделиться ссылкой на эту раздачу с друзьями:
В контактеFacebookОдноклассникиTwitterLivejournalМой МирLiveinternet
 

 
Показать сообщения:    


Вы не можете начинать темы
Вы не можете отвечать на сообщения
Вы не можете редактировать свои сообщения
Вы не можете удалять свои сообщения
Вы не можете голосовать в опросах
Вы не можете прикреплять файлы к сообщениям
Вы можете скачивать файлы