Loading...
Error

Скачать Покидая Лас-Вегас / Leaving Las Vegas (Майк Фиггис) [1995, драма, мелодрама, BDRip-AVC] [DVO]+[AVO]+[Sub]x2 торрент без регистрации

 
Статистика раздачи
Размер:  2,33 GB   |    Скачан:  107 раз
Сидов:  1  [  0 KB/s  ]  
 
Автор Сообщение

Marsianka

[] 

Покидая Лас-Вегас
| Leaving Las Vegas |


Информация о фильме
Название: Покидая Лас-Вегас
Оригинальное название: Leaving Las Vegas
Год выхода: 1995
Жанр: драма, мелодрама
Режиссер: Майк Фиггис
В ролях: Николас Кейдж, Элизабет Шу, Джулиан Сэндс, Ричард Льюис, Стивен Уэбер, Валерия Голино, Эмили Проктер, Стюарт Реген, Ким Эдамс, Грэм Беккел, Аль Хендерсон, Шаши Бхатия, Кэри Лоуэлл, Энн Ланж, Томас Копаче, Винсент Уорд, Люсинда Дженни, Френч Стюарт, Эд Лотер, Вальдемар Калиновски, Майк Фиггис, Дэвид Кригел, Билл Томпсон, Марек Стабровски, Р. Ли Эрми, Маришка Харгитей, Дэнни Хьюстон, Лори Меткаф, Дэвид Брисбин, Шоуни Смит, Пол Куинн, Джулиан Леннон

О фильме:
Если вся жизнь кажется кошмаром. Если затяжной запой окончательно разрушил карьеру в серьезной фирме. Может быть, есть смысл уничтожить все, что связывало тебя с прошлой жизнью и начать новую? В блестящем и грешном Лас-Вегасе.Где среди блеска ночной жизни одинокая «ночная бабочка» может оказаться внимательнее и сердечнее любого психоаналитика. Потому что она захочет спасти несчастного пропойцу от него самого Сможет ли эта странная любовь помочь обоим? Или погубить обоих?



Страна: США
Студия: Initial Productions, А Lila Cazes Production, Lumiere Pictures
Продолжительность: 01:52:02
Перевод: Профессиональный двухголосый, авторский одноголосый

Файл
Кодек: h.264
Качество: BDRip-AVC
Видео: 1818 Кбит/с, 1024x554, 23.976 кадр/с
1: Русский (AC3, 6 ch, 384 Кбит/с) Профессиональный двухголосый
2: Английский (AC3, 6 ch 384 Кбит/с)
Отдельно:
3: Русский (AC3, 6 ch, 384 Кбит/с) Авторский одноголосый [Юрий Живов]

Субтитры: Русские, английские

Николас Кейдж вживался в образ, употребляя в больших количествах алкоголь и посещая специализированные клиники. Элизабет Шу общалась с проститутками в Лас-Вегасе.
Автор Джон О`Брайн, на чьем романе основан фильм, совершил самоубийство через две недели после того, как начались съемки.
Режиссер Майк Фиггис играл на трубе и клавишных инструментах при записи саундтрека.
Модель Наоми Кэмпбэлл появлялась в эпизодах, но эти кадры не вошли в фильм.
Фильм, который смотрят Бен и Сэра в отеле «Круглый год» «Третий Человек» (1949) с Орсоном Уэллсом.
На съемках Николас Кейдж должен был пить алкоголь, чтобы его манера речи была более убедительна.
В двух сценах появляется такси, с рекламой на крыше компании режиссера Майка Фиггиса «Red Mullet» и его лицом.
Часы Rolex, которые носит Бен настоящие часы Джона О`Брайна.
Сцена, где Бен идет по супермаркету с тележкой бутылок и свистит песенку, была выбрана журналом «Empire» восьмой величайшей пьяной сценой в истории кино (2005).
В фрагменте, где Бен собирает вещи можно увидеть как его стакан несколько раз опустошается, а потом опять наполняется.

Оскар, 1996 год
Победитель:
Лучшая мужская роль (Николас Кейдж)
Номинации:
Лучшая женская роль (Элизабет Шу)
Лучший режиссер (Майк Фиггис)
Лучший адаптированный сценарий

Золотой глобус, 1996 год
Победитель:
Лучшая мужская роль (драма) (Николас Кейдж)
Номинации:
Лучший фильм (драма)
Лучшая женская роль (драма) (Элизабет Шу)
Лучший режиссер (Майк Фиггис)

Британская академия, 1996 год
Номинации:
Лучшая мужская роль (Николас Кейдж)
Лучшая женская роль (Элизабет Шу)
Лучший адаптированный сценарий

Премия Гильдии актеров, 1996 год
Победитель:
Лучшая мужская роль (Николас Кейдж)
Номинация:
Лучшая женская роль (Элизабет Шу)

Сан-Себастьян, 1995 год
Победитель:
Серебряная раковина за лучшую мужскую роль (Николас Кейдж)
Серебряная раковина за лучшую работу режиссера (Майк Фиггис)
Номинация:
Золотая раковина

---------------------------------------------------------------------
x264 [info]: frame I:970 Avg QP:15.21 size: 91828
x264 [info]: frame P:34718 Avg QP:18.89 size: 23149
x264 [info]: frame B:125494 Avg QP:20.67 size: 5051
---------------------------------------------------------------------

Полное имя : Leaving.Las.Vegas.1995.x264.BDRip-AVC.0ptimus.mkv
Формат : Matroska
Версия формата : Version 2
Размер файла : 2,02 Гбайт
Продолжительность : 1 ч. 52 м.
Общий поток : 2587 Кбит/сек
Название фильма : Покидая Лас-Вегас | Leaving Las Vegas [1995] -= BDRip (AVC) by 0ptimus =-
Дата кодирования : UTC 2014-02-09 09:03:01
Программа кодирования : mkvmerge v6.6.0 ('The Edge Of The In Between') built on Dec 1 2013 17:55:00
Библиотека кодирования : libebml v1.3.0 + libmatroska v1.4.1

Видео
Идентификатор : 1
Формат : AVC
Формат/Информация : Advanced Video Codec
Профиль формата : High@L4.1
Параметр CABAC формата : Да
Параметр ReFrames формата : 9 кадров
Идентификатор кодека : V_MPEG4/ISO/AVC
Продолжительность : 1 ч. 52 м.
Битрейт : 1818 Кбит/сек
Ширина : 1024 пикселя
Высота : 554 пикселя
Соотношение сторон : 1,85:1
Режим частоты кадров : Постоянный
Частота кадров : 23,976 кадра/сек
Цветовое пространство : YUV
Субдискретизация насыщенности : 4:2:0
Битовая глубина : 8 бит
Тип развёртки : Прогрессивная
Бит/(Пиксели*Кадры) : 0.134
Размер потока : 1,38 Гбайт (68%)
Заголовок : Rip by 0ptimus
Библиотека кодирования : x264 core 133 r2334 a3ac64b
Настройки программы : cabac=1 / ref=9 / deblock=1:-3:-3 / analyse=0x3:0x113 / me=umh / subme=11 / psy=1 / psy_rd=1.00:0.20 / mixed_ref=1 / me_range=32 / chroma_me=1 / trellis=2 / 8x8dct=1 / cqm=0 / deadzone=21,11 / fast_pskip=0 / chroma_qp_offset=-3 / threads=4 / lookahead_threads=1 / sliced_threads=0 / nr=0 / decimate=0 / interlaced=0 / bluray_compat=0 / constrained_intra=0 / bframes=11 / b_pyramid=2 / b_adapt=2 / b_bias=0 / direct=3 / weightb=1 / open_gop=0 / weightp=2 / keyint=240 / keyint_min=23 / scenecut=40 / intra_refresh=0 / rc_lookahead=40 / rc=2pass / mbtree=0 / bitrate=1818 / ratetol=1.0 / qcomp=0.60 / qpmin=0 / qpmax=69 / qpstep=4 / cplxblur=20.0 / qblur=0.5 / vbv_maxrate=50000 / vbv_bufsize=50000 / nal_hrd=none / ip_ratio=1.40 / pb_ratio=1.30 / aq=1:1.00
Язык : English
Default : Да
Forced : Да

Аудио #1
Идентификатор : 2
Формат : AC-3
Формат/Информация : Audio Coding 3
Расширение режима : CM (complete main)
Параметр Endianness формата : Big
Идентификатор кодека : A_AC3
Продолжительность : 1 ч. 52 м.
Вид битрейта : Постоянный
Битрейт : 384 Кбит/сек
Каналы : 6 каналов
Расположение каналов : Front: L C R, Side: L R, LFE
Частота : 48,0 КГц
Битовая глубина : 16 бит
Метод сжатия : С потерями
Размер потока : 308 Мбайт (15%)
Заголовок : Двухголосый закадровый AC3 5.1 @ 384 kbps
Язык : Russian
Default : Да
Forced : Да

Аудио #2
Идентификатор : 3
Формат : AC-3
Формат/Информация : Audio Coding 3
Расширение режима : CM (complete main)
Параметр Endianness формата : Big
Идентификатор кодека : A_AC3
Продолжительность : 1 ч. 52 м.
Вид битрейта : Постоянный
Битрейт : 384 Кбит/сек
Каналы : 6 каналов
Расположение каналов : Front: L C R, Side: L R, LFE
Частота : 48,0 КГц
Битовая глубина : 16 бит
Метод сжатия : С потерями
Размер потока : 308 Мбайт (15%)
Заголовок : AC3 5.1 @ 384 kbps
Язык : English
Default : Нет
Forced : Нет

Текст #1
Идентификатор : 4
Формат : UTF-8
Идентификатор кодека : S_TEXT/UTF8
Идентификатор кодека/Информация : UTF-8 Plain Text
Язык : Russian
Default : Нет
Forced : Нет

Текст #2
Идентификатор : 5
Формат : UTF-8
Идентификатор кодека : S_TEXT/UTF8
Идентификатор кодека/Информация : UTF-8 Plain Text
Язык : Ukrainian
Default : Нет
Forced : Нет

Текст #3
Идентификатор : 6
Формат : UTF-8
Идентификатор кодека : S_TEXT/UTF8
Идентификатор кодека/Информация : UTF-8 Plain Text
Язык : English
Default : Нет
Forced : Нет

Меню
00:00:00.000 : en:Logos/Main Title
00:01:19.830 : en:Meeting movie Moguls
00:03:48.270 : en:You Turn Me On
00:06:22.215 : en:Drunk On The Town
00:09:36.409 : en:The Shaky Signer
00:13:20.842 : en:The Last Meeting
00:15:45.027 : en:Entering Las Vegas
00:16:10.386 : en:Yure And His "Gift"
00:20:57.381 : en:A Fiery Farewell
00:23:21.984 : en:Screeching for Sera
00:24:14.870 : en:"The Hole You're In"
00:26:46.772 : en:Hooking a Hooker
00:28:56.443 : en:Come Rain Or Come Shine
00:35:49.814 : en:Pummled By A Pimp
00:38:58.586 : en:Oops! Wrong Guy!
00:40:38.519 : en:Looking For A Loser
00:43:16.677 : en:Yuri Loses It
00:46:11.185 : en:My One And Only Love
00:50:32.905 : en:The Home Of An Angel
00:55:52.599 : en:Doorstop Drunk
00:57:17.809 : en:"Ah, Gifts!"
01:01:42.240 : en:Gambling Blowout
01:04:10.764 : en:The Morning After
01:08:32.817 : en:The Breakfast Bar
01:12:45.903 : en:A Day At The Mall
01:15:51.213 : en:Be Careful Out There
01:17:10.668 : en:Crashing Pool Party
01:23:53.612 : en:Rice, Tear & Tricks
01:31:43.123 : en:Victimized
01:36:32.537 : en:Down & Out & Lonely
01:41:10.648 : en:Leaving Las Vegas
01:48:18.033 : en:End Credits
Релиз от:



Скачать Покидая.Лас-Вегас.Leaving.Las.Vegas.(Майк.Фиггис).[1995.драма.мелодрама.BDRip-AVC].[DVO]+[AVO]+[Sub]x2.torrent без регистрации
Золото ЗОЛОТАЯ РАЗДАЧА! СКАЧАННОЕ НЕ ЗАСЧИТЫВАЕТСЯ! Золото
Дата: Зарегистрирован   [ Тип: внутренний ] Как тут cкачать?
MAGNET ссылка
MAGNET ссылка


Скачать .torrent

24 KB

Статус: проверено DHT
Скачан: торрент - 107 раз, раздача полностью - 2 раз
Размер: 2,33 GB
Оценка:  - (Голосов: 0)
Поблагодарили: 2
Поделиться ссылкой на эту раздачу с друзьями:
В контактеFacebookОдноклассникиTwitterLivejournalМой МирLiveinternet
 

 
Показать сообщения:    


Вы не можете начинать темы
Вы не можете отвечать на сообщения
Вы не можете редактировать свои сообщения
Вы не можете удалять свои сообщения
Вы не можете голосовать в опросах
Вы не можете прикреплять файлы к сообщениям
Вы можете скачивать файлы