Loading...
Error

Скачать Покидая Лас-Вегас / Leaving Las Vegas (Майк Фиггис) [1995, драма, мелодрама, BDRip] [DVO] торрент без регистрации

 
Статистика раздачи
Размер:  1,45 GB   |    Скачан:  112 раз
Сидов:  1  [  0 KB/s  ]  
 
Автор Сообщение

Marsianka

[] 

Информация о фильме
Название: Покидая Лас-Вегас
Оригинальное название: Leaving Las Vegas
Год выхода: 1995
Жанр: драма, мелодрама
Режиссер: Майк Фиггис / Mike Figgis
В ролях: Николас Кейдж /Nicolas Cage/, Элизабет Шу /Elisabeth Shue/, Стивен Вебер /Steven Weber/, Джулиан Сандс /Julian Sands/, Ричард Льюис /Richard Lewis/, Валерия Голино /Valeria Golino/

О фильме:
Если вся жизнь кажется кошмаром. Если затяжной запой окончательно разрушил карьеру в серьезной фирме. Может быть, есть смысл уничтожить все, что связывало тебя с прошлой жизнью и начать новую? В блестящем и грешном Лас-Вегасе.

Где среди блеска ночной жизни одинокая «ночная бабочка» может оказаться внимательнее и сердечнее любого психоаналитика. Потому что она захочет спасти несчастного пропойцу от него самого Сможет ли эта странная любовь помочь обоим? Или погубить обоих?



Страна: США, Франция, Великобритания
Студия: United Artists
Продолжительность: 01:51:25
Перевод: Профессиональный (двухголосый, закадровый)

Файл
Кодек: XviD / AC3
Качество: BDRip
Видео: XviD, 656x400 (1.640), 23.976 fps, 1 664 Kbps (0.264 bit/pixel)
Звук: AC-3, 48.0 KHz, 2 ch, 192 Kbps, CBR
General
Complete name : E:Leaving.Las.Vegas_BDRip_1400_[Rutor.org].avi
Format : AVI
Format/Info : Audio Video Interleave
File size : 1.45 GiB
Duration : 1h 51mn
Overall bit rate : 1 865 Kbps
Writing application : VirtualDubMod 1.5.10.2 (build 2540/release)
Writing library : VirtualDubMod build 2540/release

Video
ID : 0
Format : MPEG-4 Visual
Format profile : Advanced Simple@L5
Format settings, BVOP : 1
Format settings, QPel : No
Format settings, GMC : No warppoints
Format settings, Matrix : Custom
Codec ID : XVID
Codec ID/Hint : XviD
Duration : 1h 51mn
Bit rate : 1 664 Kbps
Width : 656 pixels
Height : 400 pixels
Display aspect ratio : 1.640
Frame rate : 23.976 fps
Color space : YUV
Chroma subsampling : 4:2:0
Bit depth : 8 bits
Scan type : Progressive
Compression mode : Lossy
Bits/(Pixel*Frame) : 0.264
Stream size : 1.29 GiB (89%)
Writing library : XviD 1.2.1 (UTC 2008-12-04)

Audio
ID : 1
Format : AC-3
Format/Info : Audio Coding 3
Mode extension : CM (complete main)
Codec ID : 2000
Duration : 1h 51mn
Bit rate mode : Constant
Bit rate : 192 Kbps
Channel(s) : 2 channels
Channel positions : Front: L R
Sampling rate : 48.0 KHz
Bit depth : 16 bits
Compression mode : Lossy
Stream size : 153 MiB (10%)
Alignment : Split accross interleaves
Interleave, duration : 42 ms (1.00 video frame)
Interleave, preload duration : 500 ms



Скачать Покидая.Лас-Вегас.Leaving.Las.Vegas.(Майк.Фиггис).[1995.драма.мелодрама.BDRip].[DVO].torrent без регистрации
Золото ЗОЛОТАЯ РАЗДАЧА! СКАЧАННОЕ НЕ ЗАСЧИТЫВАЕТСЯ! Золото
Дата: Зарегистрирован   [ Тип: внутренний ] Как тут cкачать?
MAGNET ссылка
MAGNET ссылка


Скачать .torrent

15 KB

Статус: проверено DHT
Скачан: торрент - 112 раз, раздача полностью - 30 раз
Размер: 1,45 GB
Оценка:  - (Голосов: 0)
Поблагодарили: 0
Поделиться ссылкой на эту раздачу с друзьями:
В контактеFacebookОдноклассникиTwitterLivejournalМой МирLiveinternet
 

 
Показать сообщения:    


Вы не можете начинать темы
Вы не можете отвечать на сообщения
Вы не можете редактировать свои сообщения
Вы не можете удалять свои сообщения
Вы не можете голосовать в опросах
Вы не можете прикреплять файлы к сообщениям
Вы можете скачивать файлы