Loading...
Error

Скачать Дело гражданина вне всяких подозрений / Indagine su un cittadino al di sopra di ogni sospetto (Элио Петри) [1970, драма, криминал, BDRip] [MVO]+[VO]+[Sub]x2 торрент без регистрации

 
Статистика раздачи
Размер:  2,01 GB   |    Скачан:  109 раз
Сидов:  1  [  0 KB/s  ]  
 
Автор Сообщение

Marsianka

[] 

Название: Дело гражданина вне всяких подозрений
Оригинальное название: Indagine su un cittadino al di sopra di ogni sospetto
Год выпуска: 1969
Жанр: драма, криминал
Выпущено: Италия, Vera Films S.p.a.
Режиссер: Элио Петри
В ролях: Джан Мария Волонте, Флоринда Болкан, Джанни Сантуччио, Массимо Фоски, Артуро Доминичи, Филиппо Де Гара, Орацио Орландо, Серджо Трамонти, Артуро Доминичи, Альдо Рендине, Алека Пайзи, Витторио Дузе, Пино Патти, Сальво Рандоне, Уго Адинолфи, Франко Марлетта, Джакомо Беллини, Джузеппе Терранова, Винченцо Фаланга, Роберто Бонанни, Гуидо Буццелли, Джино Усай

О фильме: Картина рассказывает о полицейском инспекторе, который убивает свою любовницу, оставляет кучу улик и сам же сообщает в полицию об убийстве. Он всячески пытается навести полицейских на свой след, но следствие никак не хочет видеть убийцу в своём начальнике. Все служащие стелятся перед ним и готовы пойти на всё, лишь бы услужить и попасть к нему в милость. Сам же инспектор ведёт себя очень уверенно и нагло. Он провозглашает борьбу с коммунистами и различными подпольными организациями, пытается повесить убийство любовницы сначала на её мужа, а затем на соседа. Но, поиграв с ними, он снимает все подозрения и отпускает их восвояси. В финале картины инспектор решает признаться в совершенном преступлении, но никто ему не верит, да и не хотят работники управления позориться на всю страну. Тогда он предъявляет неоспоримые доказательства своей вины

Качество: BDRip
Видео: XviD, 1900 Кбит/с, 720х384
Аудио: Русский (AC3, 2 ch, 192 Кбит/с), итальянский (AC3, 1 ch, 192 Кбит/с)
Размер: 2.01 ГБ
Продолжительность: 01:35:46
Перевод: Профессиональный многоголосый (Спб, 5 канал), любительский одноголосый
Субтитры: Русские, английские

Исходник: ChuckNorriss (HDtracker)

Сравнение с исходником

2 «Давида» Донателло» за фильм (поровну с «Метелло») и главную мужскую роль (Джан Мария Волонте поровну с Нино Манфреди, сыгравшим в картине «В год Господень»), 3 «Серебряных ленты» за режиссуру, лучший сюжет и главную мужскую роль.

Оскар, 1972 год
Номинации (1):
Лучший адаптированный сценарий по мотивам ранее не опубликованного материала или документальных фактов

Оскар, 1971 год
Победитель (1):
Лучший фильм на иностранном языке «Италия»

Золотой глобус, 1971 год
Номинации (1):
Лучший иностранный фильм «Италия»

Каннский кинофестиваль, 1970 год
Победитель (2):
Большой приз жюри
Приз международной ассоциации кинокритиков (ФИПРЕССИ)

Номинации (1):
Золотая пальмовая ветвь
Общее
Полное имя : E:VideoDelo gragdanina.1970.XviD.BDRipDelo gragdanina.1970.eng.srt
Размер файла : 201 Кбайт

Общее
Полное имя : E:VideoDelo gragdanina.1970.XviD.BDRipDelo gragdanina.1970.Original.ita.ac3
Формат : AC-3
Формат/Информация : Audio Coding 3
Размер файла : 159 Мбайт
Продолжительность : 1 ч. 55 м.
Режим общего битрейта : Постоянный
Общий поток : 192 Кбит/сек

Аудио
Формат : AC-3
Формат/Информация : Audio Coding 3
Расширение режима : CM (complete main)
Параметр Endianness формата : Big
Продолжительность : 1 ч. 55 м.
Вид битрейта : Постоянный
Битрейт : 192 Кбит/сек
Каналы : 1 канал
Расположение каналов : Front: C
Частота : 48,0 КГц
Битовая глубина : 16 бит
Метод сжатия : С потерями
Размер потока : 159 Мбайт (100%)

Общее
Полное имя : E:VideoDelo gragdanina.1970.XviD.BDRipDelo gragdanina.1970.rus.srt
Размер файла : 159 Кбайт

Общее
Полное имя : E:VideoDelo gragdanina.1970.XviD.BDRipDelo gragdanina.1970.XviD.BDRip.avi
Формат : AVI
Формат/Информация : Audio Video Interleave
Размер файла : 1,86 Гбайт
Продолжительность : 1 ч. 55 м.
Общий поток : 2298 Кбит/сек
Программа кодирования : VirtualDubMod 1.5.10.2 (build 2540/release)
Библиотека кодирования : VirtualDubMod build 2540/release

Видео
Идентификатор : 0
Формат : MPEG-4 Visual
Профиль формата : Advanced Simple@L5
Параметр BVOP формата : 1
Параметр QPel формата : Нет
Параметр GMC формата : Без точки перехода
Параметр матрицы формата : Default (H.263)
Режим смешивания : Сжатый битовый поток
Идентификатор кодека : XVID
Идентификатор кодека/Подсказка : XviD
Продолжительность : 1 ч. 55 м.
Битрейт : 1900 Кбит/сек
Ширина : 720 пикселей
Высота : 384 пикселя
Соотношение сторон : 1,85:1
Частота кадров : 23,976 кадра/сек
Цветовое пространство : YUV
Субдискретизация насыщенности : 4:2:0
Битовая глубина : 8 бит
Тип развёртки : Прогрессивная
Метод сжатия : С потерями
Бит/(Пиксели*Кадры) : 0.287
Размер потока : 1,53 Гбайт (83%)
Библиотека кодирования : XviD 1.2.1 (UTC 2008-12-04)

Аудио #1
Идентификатор : 1
Формат : AC-3
Формат/Информация : Audio Coding 3
Расширение режима : CM (complete main)
Параметр Endianness формата : Big
Идентификатор кодека : 2000
Продолжительность : 1 ч. 55 м.
Вид битрейта : Постоянный
Битрейт : 192 Кбит/сек
Каналы : 2 канала
Расположение каналов : Front: L R
Частота : 48,0 КГц
Битовая глубина : 16 бит
Метод сжатия : С потерями
Размер потока : 159 Мбайт (8%)
Выравнивание : Разделение по промежуткам
Продолжительность промежутка : 42 мс. (1,00 видеокадр)
Время предзагрузки промежутка : 500 мс.

Аудио #2
Идентификатор : 2
Формат : AC-3
Формат/Информация : Audio Coding 3
Расширение режима : CM (complete main)
Параметр Endianness формата : Big
Идентификатор кодека : 2000
Продолжительность : 1 ч. 55 м.
Вид битрейта : Постоянный
Битрейт : 192 Кбит/сек
Каналы : 2 канала
Расположение каналов : Front: L R
Частота : 48,0 КГц
Битовая глубина : 16 бит
Метод сжатия : С потерями
Размер потока : 159 Мбайт (8%)
Выравнивание : Разделение по промежуткам
Продолжительность промежутка : 42 мс. (1,00 видеокадр)
Время предзагрузки промежутка : 500 мс.



Скачать Дело.гражданина.вне.всяких.подозрений.Indagine.su.un.cittadino.al.di.sopra.di.ogni.sospetto.(Элио.Петри).[1970.драма.криминал.BDRip].[MVO]+[VO]+[Sub]x2.torrent без регистрации
Золото ЗОЛОТАЯ РАЗДАЧА! СКАЧАННОЕ НЕ ЗАСЧИТЫВАЕТСЯ! Золото
Дата: Зарегистрирован   [ Тип: внутренний ] Как тут cкачать?
MAGNET ссылка
MAGNET ссылка


Скачать .torrent

11 KB

Статус: проверено DHT
Скачан: торрент - 109 раз, раздача полностью - 0 раз
Размер: 2,01 GB
Оценка:  - (Голосов: 0)
Поблагодарили: 1
Поделиться ссылкой на эту раздачу с друзьями:
В контактеFacebookОдноклассникиTwitterLivejournalМой МирLiveinternet
 

 
Показать сообщения:    


Вы не можете начинать темы
Вы не можете отвечать на сообщения
Вы не можете редактировать свои сообщения
Вы не можете удалять свои сообщения
Вы не можете голосовать в опросах
Вы не можете прикреплять файлы к сообщениям
Вы можете скачивать файлы