Loading...
Error

Скачать Возвращение к 36-ти ступеням Шаолиня / Shao Lin da peng da shi (Лю Чя-Лян) [1980, боевик, комедия, BDRip-AVC] [DVO] торрент без регистрации

 
Статистика раздачи
Размер:  1,47 GB   |    Скачан:  105 раз
Сидов:  1  [  0 KB/s  ]  
 
Автор Сообщение

Marsianka

[] 

Возвращение к 36-ти ступеням Шаолиня / Shao Lin da peng da shi (1980) BDRip-AVC | iPhone | P2


Название: Возвращение к 36-ти ступеням Шаолиня
Оригинальное название: Shao Lin da peng da shi
Год выхода: 1980
Жанр: боевик, комедия
Режиссер: Лю Чя-Лян
В ролях: Джа Хуи Лью, Ланг Вэй Ванг, Хоу Хсиао, Lun Hua, Енг Му квон, Кара Хуи, Сзу-Чиа Чен, Яу Цуй Линг, Вэй Хао Тенг, Гонг Сэк

О фильме:
На этот раз Гордон Лиу играет обычного уличного прохиндея, который, побрившись под монаха, собирает на улицах деньги от имени Будды. Его подбирают предприимчивые рабочие-красильщики, которых притесняет их новый манчжурский босс и устраивают шоу, выдавая его за легендарного Сан Те. Впрочем, обман вскоре вскрывается, и опозоренный Гордон Лиу отправляется в монастырь, где решает научиться кунг-фу, а затем уже делом помочь своим новым друзьям.



Страна: Гонконг
Студия: Y Shaw Brother
Продолжительность: 01:41:23
Перевод: Русский профессиональный двухголосый закадровый

Файл
Кодек: H.264
Качество: BDRip-AVC 480p iPhone
Видео: 640x356@851x356 (2.40:1) at 23.976 fps, AVC at 1800 kbps
1: 48 kHz, AAC 2.0, 150 kbps - Русский профессиональный двухголосый закадровый (TV1000)
2: 48 kHz, AAC 2.0, 128 kbps - Китайский
Субтитры: Отсутствуют

Общее
Полное имя : /Users/gekkas/Movies/CREATE/Return to the 36th Chamber.1980 (SD).m4v
Формат : MPEG-4
Идентификатор кодека : M4V
Размер файла : 1,47 Гбайт
Продолжительность : 1 ч. 41 м.
Режим общего битрейта : Переменный
Общий поток : 2076 Кбит/сек
Название фильма : Возвращение к 36-ти ступеням Шаолиня
Исполнитель : Liu Chia-Liang
Жанр : Action & Adventure
Дата записи : 1980-08-24T07:00:00Z
Дата кодирования : UTC 2013-02-20 19:29:41
Дата пометки : UTC 2013-02-21 09:56:50
Правообладатель : Y Shaw Brothers
Обложка : Yes
Примечание : Return to the 36th Chamber
sonm : Shao Lin da peng da shi
desc : На этот раз Гордон Лиу играет обычного уличного прохиндея, который, побрившись под монаха, собирает на улицах деньги от имени Будды. Его подбирают предприимчивые рабочие-красильщики, которых притесняет их новый манчжурский босс.
ldes : На этот раз Гордон Лиу играет обычного уличного прохиндея, который, побрившись под монаха, собирает на улицах деньги от имени Будды. Его подбирают предприимчивые рабочие-красильщики, которых притесняет их новый манчжурский босс и устраивают шоу, выдавая его за легендарного Сан Те. Впрочем, обман вскоре вскрывается, и опозоренный Гордон Лиу отправляется в монастырь, где решает научиться кунг-фу, а затем уже делом помочь своим новым друзьям.
stik : 9
rtng : 0
akID : -1
cnID : 598831289
xid : Apple:vendor_id:1980-56105

Видео #1
Идентификатор : 1
Формат : AVC
Формат/Информация : Advanced Video Codec
Профиль формата : Baseline@L3.0
Параметр CABAC формата : Нет
Параметр ReFrames формата : 2 кадра
Идентификатор кодека : avc1
Идентификатор кодека/Информация : Advanced Video Coding
Продолжительность : 1 ч. 41 м.
Битрейт : 1800 Кбит/сек
Максимальный битрейт : 7589 Кбит/сек
Ширина : 640 пикселей
Высота : 356 пикселей
Соотношение сторон : 2,40:1
Режим частоты кадров : Постоянный
Частота кадров : 23,976 кадра/сек
Цветовое пространство : YUV
Субдискретизация насыщенности : 4:2:0
Битовая глубина : 8 бит
Тип развёртки : Прогрессивная
Бит/(Пиксели*Кадры) : 0.330
Размер потока : 1,27 Гбайт (87%)
Библиотека кодирования : x264 core 129 r2245+704+36 8e61944 tMod+MixAQ [8-bit@all X86_64]
Настройки программы : cabac=0 / ref=2 / deblock=1:-2:-2 / analyse=0x1:0x131 / me=umh / subme=7 / psy=1 / fade_compensate=0.10 / psy_rd=0.90:0.10 / mixed_ref=1 / me_range=32 / chroma_me=1 / trellis=2 / 8x8dct=0 / cqm=0 / deadzone=21,11 / fast_pskip=0 / chroma_qp_offset=-3 / threads=18 / lookahead_threads=3 / sliced_threads=0 / nr=0 / decimate=0 / interlaced=0 / bluray_compat=0 / constrained_intra=0 / fgo=0 / bframes=0 / weightp=0 / keyint=250 / keyint_min=23 / scenecut=40 / intra_refresh=0 / rc_lookahead=120 / rc=2pass / mbtree=1 / bitrate=1800 / ratetol=1.0 / qcomp=0.70 / qpmin=0 / qpmax=69 / qpstep=4 / cplxblur=20.0 / qblur=0.5 / vbv_maxrate=5000 / vbv_bufsize=5000 / nal_hrd=none / ip_ratio=1.40 / aq=1 / aq-strength=0.90 / aq-sensitivity=10.00 / aq-ifactor=1.00 / aq-pfactor=1.00 / aq-bfactor=1.00 / aq2=0
Язык : Chinese
Дата кодирования : UTC 2013-02-20 19:29:41
Дата пометки : UTC 2013-02-20 19:30:21
Коэффициенты матрицы : BT.709

Видео #2
Идентификатор : 7
Формат : JPEG
Идентификатор кодека : jpeg
Продолжительность : 1 ч. 41 м.
Duration_LastFrame : -8 м. 36 с.
Вид битрейта : Переменный
Битрейт : 830 бит/сек
Ширина : 640 пикселей
Высота : 267 пикселей
Соотношение сторон : 2,40:1
Режим частоты кадров : Постоянный
Частота кадров : 0,002 кадр/сек
Цветовое пространство : YUV
Субдискретизация насыщенности : 4:2:0
Битовая глубина : 8 бит
Метод сжатия : С потерями
Бит/(Пиксели*Кадры) : 2.429
Размер потока : 557 Кбайт (0%)
Язык : Chinese
Дата кодирования : UTC 2013-02-20 19:36:56
Дата пометки : UTC 2013-02-20 19:36:57

Аудио #1
Идентификатор : 2
Формат : AAC
Формат/Информация : Advanced Audio Codec
Профиль формата : LC
Идентификатор кодека : 40
Продолжительность : 1 ч. 41 м.
Вид битрейта : Переменный
Битрейт : 148 Кбит/сек
Максимальный битрейт : 225 Кбит/сек
Каналы : 2 канала
Расположение каналов : Front: L R
Частота : 48,0 КГц
Метод сжатия : С потерями
Размер потока : 107 Мбайт (7%)
Заголовок : AAC Russian
Язык : Russian
Дата кодирования : UTC 2013-02-20 19:30:03
Дата пометки : UTC 2013-02-20 19:30:21

Аудио #2
Идентификатор : 4
Формат : AAC
Формат/Информация : Advanced Audio Codec
Профиль формата : LC
Идентификатор кодека : 40
Продолжительность : 1 ч. 41 м.
Вид битрейта : Переменный
Битрейт : 123 Кбит/сек
Максимальный битрейт : 199 Кбит/сек
Каналы : 2 канала
Расположение каналов : Front: L R
Частота : 48,0 КГц
Метод сжатия : С потерями
Размер потока : 89,1 Мбайт (6%)
Заголовок : AAC Chinese
Язык : Chinese
Дата кодирования : UTC 2013-02-20 19:30:11
Дата пометки : UTC 2013-02-20 19:30:21

Текст
Идентификатор : 6
Формат : Apple text
Идентификатор кодека : text
Продолжительность : 1 ч. 41 м.
Duration_LastFrame : -8 м. 36 с.
Вид битрейта : Переменный
Битрейт : 0 бит/сек
Размер потока : 255 байт (0%)
Язык : Chinese
Дата кодирования : UTC 2013-02-20 19:36:54
Дата пометки : UTC 2013-02-20 19:36:54

Меню
00:00:00.000 : Chapter 1
00:10:00.000 : Chapter 2
00:20:00.000 : Chapter 3
00:30:00.000 : Chapter 4
00:40:00.000 : Chapter 5
00:50:00.000 : Chapter 6
01:00:00.000 : Chapter 7
01:10:00.000 : Chapter 8
01:20:00.000 : Chapter 9
01:30:00.000 : Chapter 10
01:40:00.000 : Chapter 11

Sort Name: Shao Lin da peng da shi
XID: Apple:vendor_id:1980-tt0081494
contentID: 598831289
Copyright: Y Shaw Brothers
Screenwriters: Куанг Ни
Producers: Мона Фонг, Рун Рун Шоу
Director: Лю Чя-Лян
Cast: Джа Хуи Лью, Ланг Вэй Ванг, Хоу Хсиао, Lun Hua, Енг Му квон, Кара Хуи, Сзу-Чиа Чен, Яу Цуй Линг, Вэй Хао Тенг, Гонг Сэк
Studio: Y Shaw Brothers
Rating: 5
Long Deion: На этот раз Гордон Лиу играет обычного уличного прохиндея, который, побрившись под монаха, собирает на улицах деньги от имени Будды. Его подбирают предприимчивые рабочие-красильщики, которых притесняет их новый манчжурский босс и устраивают шоу, выдавая его за легендарного Сан Те. Впрочем, обман вскоре вскрывается, и опозоренный Гордон Лиу отправляется в монастырь, где решает научиться кунг-фу, а затем уже делом помочь своим новым друзьям.
Deion: На этот раз Гордон Лиу играет обычного уличного прохиндея, который, побрившись под монаха, собирает на улицах деньги от имени Будды. Его подбирают предприимчивые рабочие-красильщики, которых притесняет их новый манчжурский босс.
Release Date: 1980-08-24T07:00:00Z
Genre: Action & Adventure
Comments: Return to the 36th Chamber
Artist: Liu Chia-Liang
Name: Возвращение к 36-ти ступеням Шаолиня

x264 [info]: frame I:1923 Avg QP:20.89 size: 29978
x264 [info]: frame P:143940 Avg QP:23.44 size: 9109
x264 [info]: mb I I16..4: 17.6% 0.0% 82.4%
x264 [info]: mb P I16..4: 1.4% 0.0% 5.1% P16..4: 52.3% 20.7% 9.8% 2.2% 0.8% skip: 7.7%
x264 [info]: coded y,uvDC,uvAC intra: 72.1% 83.9% 46.5% inter: 48.5% 46.9% 14.5%
x264 [info]: i16 v,h,dc,p: 39% 14% 9% 38%
x264 [info]: i4 v,h,dc,ddl,ddr,vr,hd,vl,hu: 33% 11% 13% 6% 8% 10% 6% 8% 5%
x264 [info]: i8c dc,h,v,p: 47% 15% 28% 10%
x264 [info]: ref P L0: 81.9% 18.1%
x264 [info]: kb/s:1800.04



Скачать Возвращение.к.36-ти.ступеням.Шаолиня.Shao.Lin.da.peng.da.shi.(Лю.Чя-Лян).[1980.боевик.комедия.BDRip-AVC].[DVO].torrent без регистрации
Золото ЗОЛОТАЯ РАЗДАЧА! СКАЧАННОЕ НЕ ЗАСЧИТЫВАЕТСЯ! Золото
Дата: Зарегистрирован   [ Тип: внутренний ] Как тут cкачать?
MAGNET ссылка
MAGNET ссылка


Скачать .torrent

15 KB

Статус: проверено DHT
Скачан: торрент - 105 раз, раздача полностью - 3 раз
Размер: 1,47 GB
Оценка:  - (Голосов: 0)
Поблагодарили: 1
Поделиться ссылкой на эту раздачу с друзьями:
В контактеFacebookОдноклассникиTwitterLivejournalМой МирLiveinternet
 

 
Показать сообщения:    


Вы не можете начинать темы
Вы не можете отвечать на сообщения
Вы не можете редактировать свои сообщения
Вы не можете удалять свои сообщения
Вы не можете голосовать в опросах
Вы не можете прикреплять файлы к сообщениям
Вы можете скачивать файлы