Loading...
Error

Скачать Полицейская история / Ging chat goo si / Police story (Джеки Чан) [1985, боевик, комедия, криминал, BDRip-AVC] [MVO]+[DVO]x2+[AVO]x3+[VO]+[Оригинал]+[Sub]x2 торрент без регистрации

 
Статистика раздачи
Размер:  3,75 GB   |    Скачан:  116 раз
Сидов:  1  [  0 KB/s  ]  
 
Автор Сообщение

Marsianka

[] 

Информация о фильме
Название: Полицейская история
Оригинальное название: Ging chat goo si / Police story
Год выхода: 1985
Жанр: боевик, комедия, криминал
Режиссер: Джеки Чан
В ролях: Джеки Чан, Бриджит Лин, Мэгги Чун, Квок-Хун Лам, Билл Тун, Юен Чор, Чарли Чо, Чи-Вин Лау, Хак-Он Фунг, Хин Йинг Кэм, Марс, По Тай, Кен Тон, Фэт Ван, Фанг Ву, Мани Ло, Сю-Тинь Лэй, Пол Вонг, Бен Лам, Винни Ю, Юн-Кин Чо, Чи Фай Чан, Минг-Ван Чан, Пол Чанг, Чэнь Чихва, Чунг Ва, Чэнь Чуань, Кларенс Форд, Лианг Чианг, Дэни Ху, Бенни Лай, Роки Лаи, Фу-Вай Лам, Лау Нга Лаи, Тан Лау, Лау Чун Фанг, Крис Ли
О фильме:В результате удачно проведенной облавы в руки полиции попадает босс наркомафии Чи. Одному из полицейских, Кевину, принимавшему непосредственное участие в аресте, поручают охрану секретарши преступника, которая проходит по делу в качестве главного свидетеля. Но в день суда она исчезает. Только разыскав девушку и арестовав Чи, Кевин сможет снять с себя подозрение в соучастии



Страна: Гонконг
Студия: Golden Way Films Ltd., Paragon Films Ltd.
Продолжительность: 01:40:07
Перевод: Профессиональный многоголосый + профессиональный двухголосый + авторский одноголосый (А. Гаврилов), (В. Сонькин) + любительский одноголосый + оригинал

Файл
Кодек: MPEG-4 AVC
Качество: BDRip-AVC
Видео: 3000 Кбит/с, 1024х436, 23.976 кадр/с
Аудио #1: Русский (AC3, 2 ch, 224 Кбит/с) / Профессиональный многоголосый (Хлопушка)
Аудио #2: Русский (AC3, 2 ch, 224 Кбит/с) / Профессиональный двухголосый (НТВ)
Аудио #3: Русский (AC3, 6 ch, 448 Кбит/с) / Профессиональный двухголосый (РенТВ)
Аудио #4: Русский (AC3, 6 ch, 448 Кбит/с) / Авторский одноголосый (А. Гаврилов (поздний))
Аудио #5: Русский (AC3, 2 ch, 192 Кбит/с) / Авторский одноголосый (А. Гаврилов (ранний))
Аудио #6: Русский (AC3, 2 ch, 192 Кбит/с) / Авторский одноголосый (В. Сонькин)
Аудио #7: Русский (AC3, 2 ch, 192 Кбит/с) / Любительский одноголосый (неизвестная)
Аудио #8: Китайский (AC3, 6 ch, 448 Кбит/с)
Субтитры: Русские, английские
Семпл
Общее
Уникальный идентификатор : 221132110150522542185218592180610963528 (0xA65C7EC9636CD345957D060924029848)
Полное имя : F:3Films FРелизыPolicejskaja.istorija.1985.x264.BDRip.AVC.MediaClub.mkv
Формат : Matroska
Версия формата : Version 4 / Version 2
Размер файла : 3,75 Гбайт
Продолжительность : 1 ч. 40 м.
Общий поток : 5361 Кбит/сек
Название фильма : -= MediaClub =- rip by Lefevr
Дата кодирования : UTC 2014-02-10 18:01:02
Программа кодирования : mkvmerge v6.6.0 ('The Edge Of The In Between') built on Dec 1 2013 17:55:00
Библиотека кодирования : libebml v1.3.0 + libmatroska v1.4.1

Видео
Идентификатор : 1
Формат : AVC
Формат/Информация : Advanced Video Codec
Профиль формата : High@L4.1
Параметр CABAC формата : Да
Параметр ReFrames формата : 9 кадров
Идентификатор кодека : V_MPEG4/ISO/AVC
Продолжительность : 1 ч. 40 м.
Битрейт : 3000 Кбит/сек
Ширина : 1024 пикселя
Высота : 436 пикселей
Соотношение сторон : 2,35:1
Режим частоты кадров : Постоянный
Частота кадров : 23,976 кадра/сек
Цветовое пространство : YUV
Субдискретизация насыщенности : 4:2:0
Битовая глубина : 8 бит
Тип развёртки : Прогрессивная
Бит/(Пиксели*Кадры) : 0.280
Размер потока : 2,02 Гбайт (54%)
Заголовок : Policejskaja.istorija.1985.x264.BDRip.AVC.MediaClub
Библиотека кодирования : x264 core 130 r2273 b3065e6
Настройки программы : cabac=1 / ref=9 / deblock=1:-2:-2 / analyse=0x3:0x133 / me=umh / subme=11 / psy=1 / psy_rd=1.00:0.15 / mixed_ref=1 / me_range=32 / chroma_me=1 / trellis=2 / 8x8dct=1 / cqm=0 / deadzone=21,11 / fast_pskip=0 / chroma_qp_offset=-3 / threads=6 / lookahead_threads=1 / sliced_threads=0 / nr=0 / decimate=0 / interlaced=0 / bluray_compat=0 / constrained_intra=0 / bframes=8 / b_pyramid=2 / b_adapt=2 / b_bias=0 / direct=3 / weightb=1 / open_gop=0 / weightp=2 / keyint=240 / keyint_min=23 / scenecut=40 / intra_refresh=0 / rc=2pass / mbtree=0 / bitrate=3000 / ratetol=1.0 / qcomp=0.60 / qpmin=0 / qpmax=69 / qpstep=4 / cplxblur=20.0 / qblur=0.5 / ip_ratio=1.40 / pb_ratio=1.30 / aq=1:1.00
Язык : English
Default : Да
Forced : Да

Аудио #1
Идентификатор : 2
Формат : AC-3
Формат/Информация : Audio Coding 3
Расширение режима : CM (complete main)
Параметр Endianness формата : Big
Идентификатор кодека : A_AC3
Продолжительность : 1 ч. 40 м.
Вид битрейта : Постоянный
Битрейт : 224 Кбит/сек
Каналы : 2 канала
Расположение каналов : Front: L R
Частота : 48,0 КГц
Битовая глубина : 16 бит
Метод сжатия : С потерями
Размер потока : 160 Мбайт (4%)
Заголовок : TRACK_01_MVO_RUS_Hlopushka_Inter
Язык : Russian
Default : Да
Forced : Да

Аудио #2
Идентификатор : 3
Формат : AC-3
Формат/Информация : Audio Coding 3
Расширение режима : CM (complete main)
Параметр Endianness формата : Big
Идентификатор кодека : A_AC3
Продолжительность : 1 ч. 40 м.
Вид битрейта : Постоянный
Битрейт : 224 Кбит/сек
Каналы : 2 канала
Расположение каналов : Front: L R
Частота : 48,0 КГц
Битовая глубина : 16 бит
Метод сжатия : С потерями
Размер потока : 160 Мбайт (4%)
Заголовок : TRACK_02_DVO_RUS_HTB
Язык : Russian
Default : Нет
Forced : Нет

Аудио #3
Идентификатор : 4
Формат : AC-3
Формат/Информация : Audio Coding 3
Расширение режима : CM (complete main)
Параметр Endianness формата : Big
Идентификатор кодека : A_AC3
Продолжительность : 1 ч. 40 м.
Вид битрейта : Постоянный
Битрейт : 448 Кбит/сек
Каналы : 6 каналов
Расположение каналов : Front: L C R, Side: L R, LFE
Частота : 48,0 КГц
Битовая глубина : 16 бит
Метод сжатия : С потерями
Размер потока : 321 Мбайт (8%)
Заголовок : TRACK_03_DVO_RUS_PEHTB
Язык : Russian
Default : Нет
Forced : Нет

Аудио #4
Идентификатор : 5
Формат : AC-3
Формат/Информация : Audio Coding 3
Расширение режима : CM (complete main)
Параметр Endianness формата : Big
Идентификатор кодека : A_AC3
Продолжительность : 1 ч. 40 м.
Вид битрейта : Постоянный
Битрейт : 448 Кбит/сек
Каналы : 6 каналов
Расположение каналов : Front: L C R, Side: L R, LFE
Частота : 48,0 КГц
Битовая глубина : 16 бит
Метод сжатия : С потерями
Размер потока : 321 Мбайт (8%)
Заголовок : TRACK_04_AVO_RUS_Gavrilov_pozdyj
Язык : Russian
Default : Нет
Forced : Нет

Аудио #5
Идентификатор : 6
Формат : AC-3
Формат/Информация : Audio Coding 3
Расширение режима : CM (complete main)
Параметр Endianness формата : Big
Идентификатор кодека : A_AC3
Продолжительность : 1 ч. 40 м.
Вид битрейта : Постоянный
Битрейт : 192 Кбит/сек
Каналы : 2 канала
Расположение каналов : Front: L R
Частота : 48,0 КГц
Битовая глубина : 16 бит
Метод сжатия : С потерями
Размер потока : 138 Мбайт (4%)
Заголовок : TRACK_05_AVO_RUS_Gavrilov_ranyj
Язык : Russian
Default : Нет
Forced : Нет

Аудио #6
Идентификатор : 7
Формат : AC-3
Формат/Информация : Audio Coding 3
Расширение режима : CM (complete main)
Параметр Endianness формата : Big
Идентификатор кодека : A_AC3
Продолжительность : 1 ч. 40 м.
Вид битрейта : Постоянный
Битрейт : 192 Кбит/сек
Каналы : 2 канала
Расположение каналов : Front: L R
Частота : 48,0 КГц
Битовая глубина : 16 бит
Метод сжатия : С потерями
Размер потока : 138 Мбайт (4%)
Заголовок : TRACK_06_AVO_RUS_Sonkin
Язык : Russian
Default : Нет
Forced : Нет

Аудио #7
Идентификатор : 8
Формат : AC-3
Формат/Информация : Audio Coding 3
Расширение режима : CM (complete main)
Параметр Endianness формата : Big
Идентификатор кодека : A_AC3
Продолжительность : 1 ч. 40 м.
Вид битрейта : Постоянный
Битрейт : 192 Кбит/сек
Каналы : 2 канала
Расположение каналов : Front: L R
Частота : 48,0 КГц
Битовая глубина : 16 бит
Метод сжатия : С потерями
Размер потока : 138 Мбайт (4%)
Заголовок : TRACK_07_VO_RUS_Und
Язык : Russian
Default : Нет
Forced : Нет

Аудио #8
Идентификатор : 9
Формат : AC-3
Формат/Информация : Audio Coding 3
Расширение режима : CM (complete main)
Параметр Endianness формата : Big
Идентификатор кодека : A_AC3
Продолжительность : 1 ч. 40 м.
Вид битрейта : Постоянный
Битрейт : 448 Кбит/сек
Каналы : 6 каналов
Расположение каналов : Front: L C R, Side: L R, LFE
Частота : 48,0 КГц
Битовая глубина : 16 бит
Метод сжатия : С потерями
Размер потока : 321 Мбайт (8%)
Заголовок : TRACK_08_ORIGINAL_CHI
Язык : Chinese
Default : Нет
Forced : Нет

Текст #1
Идентификатор : 10
Формат : UTF-8
Идентификатор кодека : S_TEXT/UTF8
Идентификатор кодека/Информация : UTF-8 Plain Text
Заголовок : TEXT_01_SUB_RUS
Язык : Russian
Default : Нет
Forced : Нет

Текст #2
Идентификатор : 11
Формат : UTF-8
Идентификатор кодека : S_TEXT/UTF8
Идентификатор кодека/Информация : UTF-8 Plain Text
Заголовок : TEXT_02_SUB_ENG
Язык : English
Default : Нет
Forced : Нет

Меню
00:00:00.000 : en:Chapter 01
00:04:13.461 : en:Chapter 02
00:09:44.917 : en:Chapter 03
00:14:40.212 : en:Chapter 04
00:20:25.265 : en:Chapter 05
00:25:17.891 : en:Chapter 06
00:28:58.611 : en:Chapter 07
00:34:51.130 : en:Chapter 08
00:39:58.521 : en:Chapter 09
00:44:58.195 : en:Chapter 10
00:49:30.008 : en:Chapter 11
00:56:46.861 : en:Chapter 12
00:59:26.938 : en:Chapter 13
01:04:41.085 : en:Chapter 14
01:10:04.491 : en:Chapter 15
01:15:34.696 : en:Chapter 16
01:19:00.694 : en:Chapter 17
01:24:39.991 : en:Chapter 18
01:29:17.727 : en:Chapter 19
01:37:12.159 : en:Chapter 20
01:39:55.990 : en:Chapter 21
Сохранены оригинальные чаптеры как на Blu-ray.
x264 log:
x264 [info]: frame I:1559 Avg QP:18.80 size: 58542
x264 [info]: frame P:35461 Avg QP:21.64 size: 25767
x264 [info]: frame B:106744 Avg QP:22.91 size: 11647
Релиз от: | Автор рипа:



Скачать Полицейская.история.Ging.chat.goo.si.Police.story.(Джеки.Чан).[1985.боевик.комедия.криминал.BDRip-AVC].[MVO]+[DVO]x2+[AVO]x3+[VO]+[Оригинал]+[Sub]x2.torrent без регистрации
Золото ЗОЛОТАЯ РАЗДАЧА! СКАЧАННОЕ НЕ ЗАСЧИТЫВАЕТСЯ! Золото
Дата: Зарегистрирован   [ Тип: внутренний ] Как тут cкачать?
MAGNET ссылка
MAGNET ссылка


Скачать .torrent

19 KB

Статус: проверено DHT
Скачан: торрент - 116 раз, раздача полностью - 7 раз
Размер: 3,75 GB
Оценка:  5 (Голосов: 1)
Поблагодарили: 3
Поделиться ссылкой на эту раздачу с друзьями:
В контактеFacebookОдноклассникиTwitterLivejournalМой МирLiveinternet
 

 
Показать сообщения:    


Вы не можете начинать темы
Вы не можете отвечать на сообщения
Вы не можете редактировать свои сообщения
Вы не можете удалять свои сообщения
Вы не можете голосовать в опросах
Вы не можете прикреплять файлы к сообщениям
Вы можете скачивать файлы