Loading...
Error

Скачать Высота Гамбургер / Холм Мясорубка / Hamburger Hill (Джон Ирвин) [1987, боевик, драма, военный, HDRip] [MVO] [НТВ+] торрент без регистрации

 
Статистика раздачи
Размер:  751 MB   |    Скачан:  102 раза

Полного источника не было: 20 минут

 
Автор Сообщение

Marsianka

[] 

Информация о фильме
Название: Высота Гамбургер / Холм Мясорубка
Оригинальное название: Hamburger Hill
Год выхода: 1987
Жанр: боевик, драма, военный
Режиссер: Джон Ирвин / John Irvin
В ролях: Энтони Баррил, Майкл Бортман, Дон Чидл, Майкл Долан, Джон Джеймс, Дилан МакДермотт, Майкл А, Гарри О`Рейли, Дэниэл О`Ши, Тим Куилл, Томми Свердлоу, Кортни Б, Стивен Вебер, Теган Уэст, Кью Чинх, Даг Гудман, Дж.Д. Ван Сикл...

О фильме:
Вьетнам, май 1969 года. Десять дней измотанные войной солдаты отряда «Браво» 101 - й дивизии штурмуют высоту 937, прозванную «Гамбургером». Этот ничем не примечательный холм назван так потому, что перемалывает людей как мясорубка, и каждая пядь его земли буквально пропитана кровью.
Потери составляют 70%, но приходится вновь и вновь идти в бой и подниматься в атаку. Молодые американские парни сражаются за свою страну, своих друзей и однополчан, за собственную жизнь. Война - это ад, но высота «Гамбургер» намного хуже ада



Страна: США
Студия: RKO Pictures
Продолжительность: 01:49:47
Перевод: Профессиональный (многоголосый закадровый) НТВ+

Файл
Кодек: XviD
Качество: HDRip
Видео: 640x352 (1.82:1), 23.976 fps, XviD build 50 ~819 kbps avg, 0.15 bit/pixel
Звук: 48 kHz, MPEG Layer 3, 2 ch, ~128.00 kbps avg

Семпл
General
Complete name : Vysota_Gamburger_1987_HDRp_740_Один 777.avi
Format : AVI
Format/Info : Audio Video Interleave
File size : 751 MiB
Duration : 1h 49mn
Overall bit rate : 957 Kbps
Writing application : VirtualDubMod 1.5.10.3 | www.virtualdub-fr.org || (build 2550/release)
Writing library : VirtualDubMod build 2550/release

Video
ID : 0
Format : MPEG-4 Visual
Format profile : Advanced Simple@L5
Format settings, BVOP : 1
Format settings, QPel : No
Format settings, GMC : No warppoints
Format settings, Matrix : Default (MPEG)
Codec ID : XVID
Codec ID/Hint : XviD
Duration : 1h 49mn
Bit rate : 820 Kbps
Width : 640 pixels
Height : 352 pixels
Display aspect ratio : 16:9
Frame rate : 23.976 fps
Color space : YUV
Chroma subsampling : 4:2:0
Bit depth : 8 bits
Scan type : Progressive
Compression mode : Lossy
Bits/(Pixel*Frame) : 0.152
Stream size : 644 MiB (86%)
Writing library : XviD 1.2.1 (UTC 2008-12-04)

Audio
ID : 1
Format : MPEG Audio
Format version : Version 1
Format profile : Layer 3
Codec ID : 55
Codec ID/Hint : MP3
Duration : 1h 49mn
Bit rate mode : Constant
Bit rate : 128 Kbps
Channel(s) : 2 channels
Sampling rate : 48.0 KHz
Compression mode : Lossy
Stream size : 101 MiB (13%)
Alignment : Aligned on interleaves
Interleave, duration : 42 ms (1.00 video frame)
Interleave, preload duration : 504 ms
Writing library : LAME3.98r
Encoding settings : -m s -V 4 -q 2 -lowpass 17 -b 128
Автор рипа:



Скачать Высота.Гамбургер.Холм.Мясорубка.Hamburger.Hill.(Джон.Ирвин).[1987.боевик.драма.военный.HDRip].[MVO].[НТВ+].torrent без регистрации
Золото ЗОЛОТАЯ РАЗДАЧА! СКАЧАННОЕ НЕ ЗАСЧИТЫВАЕТСЯ! Золото
Дата: Зарегистрирован   [ Тип: внутренний ] Как тут cкачать?
MAGNET ссылка
MAGNET ссылка


Скачать .torrent

15 KB

Статус: проверено DHT
Скачан: торрент - 102 раз, раздача полностью - 1 раз
Размер: 751 MB
Оценка:  3 (Голосов: 1)
Поблагодарили: 2
Поделиться ссылкой на эту раздачу с друзьями:
В контактеFacebookОдноклассникиTwitterLivejournalМой МирLiveinternet
 

 
Показать сообщения:    


Вы не можете начинать темы
Вы не можете отвечать на сообщения
Вы не можете редактировать свои сообщения
Вы не можете удалять свои сообщения
Вы не можете голосовать в опросах
Вы не можете прикреплять файлы к сообщениям
Вы можете скачивать файлы