Loading...
Error

Скачать Мемуары гейши / Memoirs of a Geisha (Роб Маршалл) [2005, драма, мелодрама, BDRip-AVC] [Dub]+[Sub]x2 торрент без регистрации

 
Статистика раздачи
Размер:  2,22 GB   |    Скачан:  128 раз

Полного источника не было: 26 минут

 
Автор Сообщение

Marsianka

[] 

Мемуары гейши / Memoirs of a Geisha (2005) BDRip-AVC | iPhone | D


Название: Мемуары гейши
Оригинальное название: Memoirs of a Geisha
Год выхода: 2005
Жанр: драма, мелодрама
Режиссер: Роб Маршалл
В ролях: Чжан Цзыи, Мишель Йео, Гун Ли, Кен Ватанабе, Каори Момои, Юки Кудо, Сузука Ого, Кодзи Якусё, Кэри-Хироюки Тагава, Мако

О фильме:
Маленькую прелестную девочку из бедной японской семьи отдают в услужение в дом гейш. С годами красавица расцветает и познает все таинства этой профессии. Самые влиятельные мужчины становятся пленниками знаменитой гейши по имени Сайюри, достигшей совершенства в своем искусстве.
Но в сердце Сайюри теплится любовь к тому, над которым ее чары не властны. Тайну своей любовной страсти она доверяет лишь страницам дневника



Страна: США
Студия: Columbia Pictures Corporation, DreamWorks SKG, Spyglass Entertainment
Продолжительность: 02:25:08
Перевод: Русский дублированный

Файл
Кодек: H.264
Качество: BDRip-AVC 480p iPhone
Видео: 640x364@851x364 (1.85:1) at 23.976 fps, AVC at 1800 kbps
1: 48 kHz, AAC 2.0, 192 kbps - Русский дублированный
2: 48 kHz, AAC 2.0, 192 kbps - Английский
Субтитры: Русские, Английские

General
Complete name : C:CREATE480outMemoirs of a Geisha.2005 (SD).m4v
Format : MPEG-4
Codec ID : M4V
File size : 2.22 GiB
Duration : 2h 25mn
Overall bit rate mode : Variable
Overall bit rate : 2 192 Kbps
Movie name : Мемуары гейши
Performer : Роб Маршалл
Genre : Drama
Recorded date : UTC 2006-03-28 08:00:00
Encoded date : UTC 2013-08-11 13:03:09
Tagged date : UTC 2013-08-11 13:05:12
Copyright : Y Columbia Pictures Corporation, DreamWorks SKG, Spyglass Entertainment
Cover : Yes
iTunEXTC : uk-movie|12|300|

sonm : Memoirs of a Geisha
desc : Маленькую прелестную девочку из бедной японской семьи отдают в услужение в дом гейш. С годами красавица расцветает и познает все таинства этой профессии. Самые влиятельные мужчины становятся пленниками знаменитой гейши по имени Сайюри.
ldes : Маленькую прелестную девочку из бедной японской семьи отдают в услужение в дом гейш. С годами красавица расцветает и познает все таинства этой профессии. Самые влиятельные мужчины становятся пленниками знаменитой гейши по имени Сайюри, достигшей совершенства в своем искусстве. / Но в сердце Сайюри теплится любовь к тому, над которым ее чары не властны. Тайну своей любовной страсти она доверяет лишь страницам дневника
hdvd : 0
stik : 9
akID : -1
sfID : 0
cnID : 336891897
xid : Apple:vendor_id:2005-77132

Video
ID : 1
Format : AVC
Format/Info : Advanced Video Codec
Format profile : Baseline@L3.0
Format settings, CABAC : No
Format settings, ReFrames : 2 frames
Codec ID : avc1
Codec ID/Info : Advanced Video Coding
Duration : 2h 25mn
Bit rate : 1 800 Kbps
Maximum bit rate : 6 382 Kbps
Width : 640 pixels
Height : 364 pixels
Display aspect ratio : 2.35:1
Frame rate mode : Constant
Frame rate : 23.976 fps
Color space : YUV
Chroma subsampling : 4:2:0
Bit depth : 8 bits
Scan type : Progressive
Bits/(Pixel*Frame) : 0.322
Stream size : 1.82 GiB (82%)
Writing library : x264 core 133 r2334+704+50 a7549b7 tMod [8-bit@4:2:0 X86_64]
Encoding settings : cabac=0 / ref=2 / deblock=1:-1:-1 / analyse=0x1:0x131 / me=umh / subme=7 / psy=1 / fade_compensate=0.10 / psy_rd=1.00:0.15 / mixed_ref=1 / me_range=32 / chroma_me=1 / trellis=2 / 8x8dct=0 / cqm=0 / deadzone=21,11 / fast_pskip=0 / chroma_qp_offset=-3 / threads=12 / lookahead_threads=2 / sliced_threads=0 / nr=0 / decimate=0 / interlaced=0 / bluray_compat=0 / constrained_intra=0 / fgo=0 / bframes=0 / weightp=0 / keyint=250 / keyint_min=23 / scenecut=40 / intra_refresh=0 / rc_lookahead=120 / rc=2pass / mbtree=1 / bitrate=1800 / ratetol=1.0 / qcomp=0.70 / qpmin=0 / qpmax=69 / qpstep=4 / cplxblur=20.0 / qblur=0.5 / vbv_maxrate=5000 / vbv_bufsize=5000 / nal_hrd=none / ip_ratio=1.30 / aq=4:0.90 / aq-sensitivity=10.00 / aq-factor=1.00:1.00:1.00 / aq2=0 / aq3=0
Language : English
Encoded date : UTC 2013-08-11 13:03:09
Tagged date : UTC 2013-08-11 13:03:54
Matrix coefficients : BT.709

Audio #1
ID : 2
Format : AAC
Format/Info : Advanced Audio Codec
Format profile : LC
Codec ID : 40
Duration : 2h 25mn
Bit rate mode : Variable
Bit rate : 196 Kbps
Maximum bit rate : 234 Kbps
Channel(s) : 2 channels
Channel positions : Front: L R
Sampling rate : 48.0 KHz
Compression mode : Lossy
Stream size : 204 MiB (9%)
Title : AAC Russian DUB
Language : Russian
Encoded date : UTC 2013-08-11 13:03:41
Tagged date : UTC 2013-08-11 13:03:54

Audio #2
ID : 3
Format : AAC
Format/Info : Advanced Audio Codec
Format profile : LC
Codec ID : 40
Duration : 2h 25mn
Bit rate mode : Variable
Bit rate : 188 Kbps
Maximum bit rate : 232 Kbps
Channel(s) : 2 channels
Channel positions : Front: L R
Sampling rate : 48.0 KHz
Compression mode : Lossy
Stream size : 195 MiB (9%)
Title : AAC English
Language : English
Encoded date : UTC 2013-08-11 13:03:48
Tagged date : UTC 2013-08-11 13:03:54

Text #1
ID : 4
Format : Timed Text
Muxing mode : sbtl
Codec ID : tx3g
Duration : 2h 17mn
Bit rate mode : Variable
Bit rate : 75 bps
Stream size : 74.9 KiB (0%)
Title : Subtitle Russian
Language : Russian
Encoded date : UTC 2013-08-11 13:03:54
Tagged date : UTC 2013-08-11 13:03:54

Text #2
ID : 5
Format : Timed Text
Muxing mode : sbtl
Codec ID : tx3g
Duration : 2h 17mn
Bit rate mode : Variable
Bit rate : 48 bps
Stream size : 48.1 KiB (0%)
Title : Subtitle English
Language : English
Encoded date : UTC 2013-08-11 13:03:54
Tagged date : UTC 2013-08-11 13:03:54

Sort Name: Memoirs of a Geisha
XID: Apple:vendor_id:2005-77132
Content ID: 336891897
Copyright: Y Columbia Pictures Corporation, DreamWorks SKG, Spyglass Entertainment
ScreenWriters: Робин Суикорд, Артур Голден
Producers: Люси Фишер, Стивен Спилберг, Дуглас Уик
Director: Rob Marshall
Cast: Чжан Цзыи, Мишель Йео, Гун Ли, Кен Ватанабе, Каори Момои, Юки Кудо, Сузука Ого, Кодзи Якусё, Кэри-Хироюки Тагава, Мако
Rating: 12
Long Deion: Маленькую прелестную девочку из бедной японской семьи отдают в услужение в дом гейш. С годами красавица расцветает и познает все таинства этой профессии. Самые влиятельные мужчины становятся пленниками знаменитой гейши по имени Сайюри, достигшей совершенства в своем искусстве.
Но в сердце Сайюри теплится любовь к тому, над которым ее чары не властны. Тайну своей любовной страсти она доверяет лишь страницам дневника
Deion: Маленькую прелестную девочку из бедной японской семьи отдают в услужение в дом гейш. С годами красавица расцветает и познает все таинства этой профессии. Самые влиятельные мужчины становятся пленниками знаменитой гейши по имени Сайюри.
Release Date: 2006-03-28T08:00:00Z
Genre: Drama
Artist: Роб Маршалл
Name: Мемуары гейши

x264 [info]: frame I:3681 Avg QP:16.10 size: 18813
x264 [info]: frame P:205119 Avg QP:17.53 size: 9203
x264 [info]: mb I I16..4: 40.7% 0.0% 59.3%
x264 [info]: mb P I16..4: 2.0% 0.0% 3.0% P16..4: 45.3% 25.0% 11.7% 2.3% 0.9% skip: 9.7%
x264 [info]: coded y,uvDC,uvAC intra: 58.4% 67.2% 50.9% inter: 47.0% 40.5% 31.9%
x264 [info]: i16 v,h,dc,p: 53% 12% 9% 26%
x264 [info]: i4 v,h,dc,ddl,ddr,vr,hd,vl,hu: 36% 13% 14% 5% 8% 9% 5% 7% 3%
x264 [info]: i8c dc,h,v,p: 54% 12% 27% 8%
x264 [info]: ref P L0: 77.1% 22.9%
x264 [info]: kb/s:1797.77



Скачать Мемуары.гейши.Memoirs.of.a.Geisha.(Роб.Маршалл).[2005.драма.мелодрама.BDRip-AVC].[Dub]+[Sub]x2.torrent без регистрации
Золото ЗОЛОТАЯ РАЗДАЧА! СКАЧАННОЕ НЕ ЗАСЧИТЫВАЕТСЯ! Золото
Дата: Зарегистрирован   [ Тип: внутренний ] Как тут cкачать?
MAGNET ссылка
MAGNET ссылка


Скачать .torrent

12 KB

Статус: проверено DHT
Скачан: торрент - 128 раз, раздача полностью - 40 раз
Размер: 2,22 GB
Оценка:  - (Голосов: 0)
Поблагодарили: 3
Поделиться ссылкой на эту раздачу с друзьями:
В контактеFacebookОдноклассникиTwitterLivejournalМой МирLiveinternet
 

 
Показать сообщения:    


Вы не можете начинать темы
Вы не можете отвечать на сообщения
Вы не можете редактировать свои сообщения
Вы не можете удалять свои сообщения
Вы не можете голосовать в опросах
Вы не можете прикреплять файлы к сообщениям
Вы можете скачивать файлы