Loading...
Error

Скачать Приготовь гроб! / Preparati la Bara! (Фердинандо Бальди) [1968, боевик, вестерн, BDRip] [VO] торрент без регистрации

 
Статистика раздачи
Размер:  1,54 GB   |    Скачан:  105 раз
Сидов:  1  [  0 KB/s  ]  
 
Автор Сообщение

Marsianka

[] 

Название: Приготовь гроб!
Оригинальное название: Preparati la Bara!
Год выпуска: 1968
Жанр: боевик, вестерн
Выпущено: Италия, B.R.C. Produzione S.r.l.
Режиссер: Фердинандо Бальди
В ролях: Теренс Хилл, Хорст Франк, Джордж Истман, Хосе Торрес, Пинуккио Ардиа, Гидо Лолобриджида, Барбара Саймон

О фильме: Судебный исполнитель Джо ярый поборник справедливости. По долгу службы ему приходится приводить в исполнение смертные приговоры. Но большинство приговорённых невиновны. Они ложно обвинены местным политическим деятелем Дэвидом, безраздельно правящим в этих краях при поддержке банды грабителей и убийц. Джо хитростью спасает "висельников" от смерти и собирает их в команду, готовую бросить вызов всесильному Дэвиду...

Качество: BDRip
Видео: XviD, 2001 Кбит/с, 704x432
Аудио: Русский, итальянский (AC3, 2 ch, 192 Кбит/с)
Размер: 1.54 ГБ
Продолжительность: 01:31:56
Перевод: Любительский одноголосый

Исходник: zavin (HDtracker)

Сравнение с исходником

Общее
Полное имя : E:VideoPrigotov grob!.1968.XviD.BDRip.avi
Формат : AVI
Формат/Информация : Audio Video Interleave
Размер файла : 1,54 Гбайт
Продолжительность : 1 ч. 31 м.
Общий поток : 2399 Кбит/сек
Программа кодирования : VirtualDubMod 1.5.10.2 (build 2540/release)
Библиотека кодирования : VirtualDubMod build 2540/release

Видео
Идентификатор : 0
Формат : MPEG-4 Visual
Профиль формата : Advanced Simple@L5
Параметр BVOP формата : 1
Параметр QPel формата : Нет
Параметр GMC формата : Без точки перехода
Параметр матрицы формата : Default (H.263)
Режим смешивания : Сжатый битовый поток
Идентификатор кодека : XVID
Идентификатор кодека/Подсказка : XviD
Продолжительность : 1 ч. 31 м.
Битрейт : 2001 Кбит/сек
Ширина : 704 пикселя
Высота : 432 пикселя
Соотношение сторон : 16:10
Частота кадров : 23,976 кадра/сек
Цветовое пространство : YUV
Субдискретизация насыщенности : 4:2:0
Битовая глубина : 8 бит
Тип развёртки : Прогрессивная
Метод сжатия : С потерями
Бит/(Пиксели*Кадры) : 0.274
Размер потока : 1,28 Гбайт (83%)
Библиотека кодирования : XviD 1.2.1 (UTC 2008-12-04)

Аудио #1
Идентификатор : 1
Формат : AC-3
Формат/Информация : Audio Coding 3
Расширение режима : CM (complete main)
Параметр Endianness формата : Big
Идентификатор кодека : 2000
Продолжительность : 1 ч. 31 м.
Вид битрейта : Постоянный
Битрейт : 192 Кбит/сек
Каналы : 2 канала
Расположение каналов : Front: L R
Частота : 48,0 КГц
Битовая глубина : 16 бит
Метод сжатия : С потерями
Размер потока : 126 Мбайт (8%)
Выравнивание : Разделение по промежуткам
Продолжительность промежутка : 42 мс. (1,00 видеокадр)
Время предзагрузки промежутка : 500 мс.

Аудио #2
Идентификатор : 2
Формат : AC-3
Формат/Информация : Audio Coding 3
Расширение режима : CM (complete main)
Параметр Endianness формата : Big
Идентификатор кодека : 2000
Продолжительность : 1 ч. 31 м.
Вид битрейта : Постоянный
Битрейт : 192 Кбит/сек
Каналы : 2 канала
Расположение каналов : Front: L R
Частота : 48,0 КГц
Битовая глубина : 16 бит
Метод сжатия : С потерями
Размер потока : 126 Мбайт (8%)
Выравнивание : Разделение по промежуткам
Продолжительность промежутка : 42 мс. (1,00 видеокадр)
Время предзагрузки промежутка : 500 мс.



Скачать Приготовь.гроб!.Preparati.la.Bara!.(Фердинандо.Бальди).[1968.боевик.вестерн.BDRip].[VO].torrent без регистрации
Золото ЗОЛОТАЯ РАЗДАЧА! СКАЧАННОЕ НЕ ЗАСЧИТЫВАЕТСЯ! Золото
Дата: Зарегистрирован   [ Тип: внутренний ] Как тут cкачать?
MAGNET ссылка
MAGNET ссылка


Скачать .torrent

16 KB

Статус: проверено DHT
Скачан: торрент - 105 раз, раздача полностью - 7 раз
Размер: 1,54 GB
Оценка:  - (Голосов: 0)
Поблагодарили: 1
Поделиться ссылкой на эту раздачу с друзьями:
В контактеFacebookОдноклассникиTwitterLivejournalМой МирLiveinternet
 

 
Показать сообщения:    


Вы не можете начинать темы
Вы не можете отвечать на сообщения
Вы не можете редактировать свои сообщения
Вы не можете удалять свои сообщения
Вы не можете голосовать в опросах
Вы не можете прикреплять файлы к сообщениям
Вы можете скачивать файлы