Loading...
Error

Скачать Специалист / The Specialist (Луис Ллоса) [1994, боевик, триллер, BDRip-AVC] [Dub]x2+[MVO]+[DVO]+[AVO]x3+[Sub]x2 торрент без регистрации

 
Статистика раздачи
Размер:  3,89 GB   |    Скачан:  134 раза
Сидов:  1  [  0 KB/s  ]  
 
Автор Сообщение

Marsianka

[] 

Информация о фильме
Название: Специалист
Оригинальное название: The Specialist
Год выхода: 1994
Жанр: боевик, триллер
Режиссер: Луис Ллоса
В ролях: Сильвестр Сталлоне, Шэрон Стоун, Джеймс Вудс, Род Стайгер, Эрик Робертс, Марио Эрнесто Санчез, Чейз Рэндольф, Жанна Белл, Бриттани Пейдж Боак, Тони Мунафо, Мерседес Энрикез, Йениффер Беренс

О фильме:
Шэрон Стоун в роли сексапильной красотки Мэй с роковым прошлым. Она поклялась отомстить гангстерам, убившим ее родителей, и уже выбрала способ, как с ними расправиться, и нашла человека, который это сделает: внешне невозмутимый бывший эксперт подрывник ЦРУ Рэй. Майами, курорт для сверхбогачей, превращается в охотничью территорию, где Мэй заманивает и соблазняет убийц, а Рэй мастерски взрывает их, превращая в пепел.



Страна: США, Перу
Студия: Warner Bros. Pictures, Jerry Weintraub Productions, Iguana Producciones
Продолжительность: 01:49:58
Перевод: Дублированный, профессиональный (многоголосый закадровый), профессиональный (двухголосый закадровый), авторский (одноголосый закадровый)

Файл
Кодек: h264
Качество: BDRip-AVC
Видео: 2567 Кбит/с, 1024x576, 23.976 кадр/с
1: Русский (AC3, 6 ch, 384 Кбит/с) Дублированный [Мост-Видео]
2: Русский (AC3, 2 ch, 192 Кбит/с) Профессиональный многоголосый [ВГТРК]
3: Русский (AC3, 6 ch, 384 Кбит/с) Авторский одноголосый [Андрей Гаврилов]
4: Английский (AC3, 6 ch, 448 Кбит/с)
Отдельно:
5: Русский (AC3, 2 ch, 192 Кбит/с) Дублированный [Варус-Видео]
6: Русский (AC3, 2 ch, 192 Кбит/с) Профессиональный двухголосый [НТВ]
7: Русский (AC3, 6 ch, 384 Кбит/с) Авторский одноголосый [Юрий Живов]
8: Русский (AC3, 2 ch, 192 Кбит/с) Авторский одноголосый [Вартан Дохалов]
9: Украинский (AC3, 2 ch, 192 Кбит/с)

Субтитры: Русские, английские

----------------------------------------------------------------------
x264 [info]: frame I:1447 Avg QP:17.08 size: 71198
x264 [info]: frame P:35631 Avg QP:19.58 size: 25622
x264 [info]: frame B:121107 Avg QP:21.42 size: 9075
----------------------------------------------------------------------

Полное имя : Specialist.1994.x264.BDRip-AVC.0ptimus.mkv
Формат : Matroska
Версия формата : Version 2
Размер файла : 3,00 Гбайт
Продолжительность : 1 ч. 49 м.
Общий поток : 3911 Кбит/сек
Название фильма : Специалист | The Specialist [1994] -= BDRip (AVC) by 0ptimus =-
Дата кодирования : UTC 2014-02-08 07:18:11
Программа кодирования : mkvmerge v6.6.0 ('The Edge Of The In Between') built on Dec 1 2013 17:55:00
Библиотека кодирования : libebml v1.3.0 + libmatroska v1.4.1

Видео
Идентификатор : 1
Формат : AVC
Формат/Информация : Advanced Video Codec
Профиль формата : High@L4.1
Параметр CABAC формата : Да
Параметр ReFrames формата : 8 кадров
Идентификатор кодека : V_MPEG4/ISO/AVC
Продолжительность : 1 ч. 49 м.
Битрейт : 2567 Кбит/сек
Ширина : 1024 пикселя
Высота : 576 пикселей
Соотношение сторон : 16:9
Режим частоты кадров : Постоянный
Частота кадров : 23,976 кадра/сек
Цветовое пространство : YUV
Субдискретизация насыщенности : 4:2:0
Битовая глубина : 8 бит
Тип развёртки : Прогрессивная
Бит/(Пиксели*Кадры) : 0.182
Размер потока : 1,91 Гбайт (64%)
Заголовок : Rip by 0ptimus
Библиотека кодирования : x264 core 116 r2044 392e762
Настройки программы : cabac=1 / ref=8 / deblock=1:-2:-1 / analyse=0x3:0x113 / me=umh / subme=8 / psy=1 / psy_rd=1.00:0.20 / mixed_ref=1 / me_range=32 / chroma_me=1 / trellis=1 / 8x8dct=1 / cqm=0 / deadzone=21,11 / fast_pskip=0 / chroma_qp_offset=-3 / threads=3 / sliced_threads=0 / nr=0 / decimate=1 / interlaced=0 / bluray_compat=0 / constrained_intra=0 / bframes=5 / b_pyramid=2 / b_adapt=2 / b_bias=0 / direct=3 / weightb=1 / open_gop=0 / weightp=2 / keyint=250 / keyint_min=23 / scenecut=40 / intra_refresh=0 / rc=2pass / mbtree=0 / bitrate=2567 / ratetol=1.0 / qcomp=0.60 / qpmin=0 / qpmax=69 / qpstep=4 / cplxblur=20.0 / qblur=0.5 / ip_ratio=1.40 / pb_ratio=1.30 / aq=1:1.00
Язык : English
Default : Да
Forced : Да

Аудио #1
Идентификатор : 2
Формат : AC-3
Формат/Информация : Audio Coding 3
Расширение режима : CM (complete main)
Параметр Endianness формата : Big
Идентификатор кодека : A_AC3
Продолжительность : 1 ч. 49 м.
Вид битрейта : Постоянный
Битрейт : 384 Кбит/сек
Каналы : 6 каналов
Расположение каналов : Front: L C R, Side: L R, LFE
Частота : 48,0 КГц
Битовая глубина : 16 бит
Метод сжатия : С потерями
Размер потока : 302 Мбайт (10%)
Заголовок : Дублированный [Мост-Видео] AC3 5.1 @ 384 kbps
Язык : Russian
Default : Да
Forced : Да

Аудио #2
Идентификатор : 3
Формат : AC-3
Формат/Информация : Audio Coding 3
Расширение режима : CM (complete main)
Параметр Endianness формата : Big
Идентификатор кодека : A_AC3
Продолжительность : 1 ч. 49 м.
Вид битрейта : Постоянный
Битрейт : 192 Кбит/сек
Каналы : 2 канала
Расположение каналов : Front: L R
Частота : 48,0 КГц
Битовая глубина : 16 бит
Метод сжатия : С потерями
Размер потока : 151 Мбайт (5%)
Заголовок : Многоголосый [ВГТРК] AC3 2.0 @ 192 kbps
Язык : Russian
Default : Нет
Forced : Нет

Аудио #3
Идентификатор : 4
Формат : AC-3
Формат/Информация : Audio Coding 3
Расширение режима : CM (complete main)
Параметр Endianness формата : Big
Идентификатор кодека : A_AC3
Продолжительность : 1 ч. 49 м.
Вид битрейта : Постоянный
Битрейт : 384 Кбит/сек
Каналы : 6 каналов
Расположение каналов : Front: L C R, Side: L R, LFE
Частота : 48,0 КГц
Битовая глубина : 16 бит
Метод сжатия : С потерями
Размер потока : 302 Мбайт (10%)
Заголовок : Авторский [Андрей Гаврилов] AC3 5.1 @ 384 kbps
Язык : Russian
Default : Нет
Forced : Нет

Аудио #4
Идентификатор : 5
Формат : AC-3
Формат/Информация : Audio Coding 3
Расширение режима : CM (complete main)
Параметр Endianness формата : Big
Идентификатор кодека : A_AC3
Продолжительность : 1 ч. 49 м.
Вид битрейта : Постоянный
Битрейт : 384 Кбит/сек
Каналы : 6 каналов
Расположение каналов : Front: L C R, Side: L R, LFE
Частота : 48,0 КГц
Битовая глубина : 16 бит
Метод сжатия : С потерями
Размер потока : 302 Мбайт (10%)
Заголовок : AC3 5.1 @ 384 kbps
Язык : English
Default : Нет
Forced : Нет

Текст #1
Идентификатор : 6
Формат : UTF-8
Идентификатор кодека : S_TEXT/UTF8
Идентификатор кодека/Информация : UTF-8 Plain Text
Язык : Russian
Default : Нет
Forced : Нет

Текст #2
Идентификатор : 7
Формат : UTF-8
Идентификатор кодека : S_TEXT/UTF8
Идентификатор кодека/Информация : UTF-8 Plain Text
Язык : English
Default : Нет
Forced : Нет

Меню
00:00:00.000 : :Both dead men
00:05:21.634 : :Her only hope
00:09:14.335 : :Sticky with blood
00:12:13.535 : :Tip Refused
00:14:24.702 : :What Tomas wants
00:18:17.469 : :Vacating a seat
00:20:33.803 : :With Tomas
00:23:45.103 : :In Ray's eye
00:27:43.670 : :"My problem now"
00:30:38.037 : :Doorway to death
00:34:28.671 : :Ned in control
00:36:36.605 : :All part of work
00:39:36.638 : :Police cooperation
00:41:48.205 : :Craziest person
00:45:28.505 : :What each sees
00:47:44.505 : :Bye-bye
00:53:20.505 : :Three thrateners
00:56:53.705 : :Poolside cat/mouse
01:00:44.105 : :A grieving father
01:04:28.472 : :Hold the phone
01:08:56.472 : :Churchgoers
01:12:36.939 : :May/Ray close up
01:17:18.506 : :Unworthy of trust
01:20:35.273 : :Incendiary welcome
01:23:07.273 : :Mess in kitchen
01:24:46.074 : :Very good on phone
01:28:54.274 : :Double M Seafood
01:32:10.075 : :Tightening the net
01:33:40.108 : :Unfinished business
01:35:28.408 : :Nice sneak attack
01:39:34.975 : :All deserve to die
01:42:09.342 : :Seconds to oblivion
01:44:21.276 : :A kind God
01:45:10.343 : :End Credits
Релиз от:



Скачать Специалист.The.Specialist.(Луис.Ллоса).[1994.боевик.триллер.BDRip-AVC].[Dub]x2+[MVO]+[DVO]+[AVO]x3+[Sub]x2.torrent без регистрации
Золото ЗОЛОТАЯ РАЗДАЧА! СКАЧАННОЕ НЕ ЗАСЧИТЫВАЕТСЯ! Золото
Дата: Зарегистрирован   [ Тип: внутренний ] Как тут cкачать?
MAGNET ссылка
MAGNET ссылка


Скачать .torrent

40 KB

Статус: проверено DHT
Скачан: торрент - 134 раз, раздача полностью - 64 раз
Размер: 3,89 GB
Оценка:  5 (Голосов: 1)
Поблагодарили: 2
Поделиться ссылкой на эту раздачу с друзьями:
В контактеFacebookОдноклассникиTwitterLivejournalМой МирLiveinternet
 

 
Показать сообщения:    


Вы не можете начинать темы
Вы не можете отвечать на сообщения
Вы не можете редактировать свои сообщения
Вы не можете удалять свои сообщения
Вы не можете голосовать в опросах
Вы не можете прикреплять файлы к сообщениям
Вы можете скачивать файлы