Loading...
Error

Скачать Сообщество / Community (сезон 03) (Энтони Руссо) [2011-2012, комедия, WEB-DL] [720p] [DVO (Кубик в Кубе)] торрент без регистрации

 
Статистика раздачи
Размер:  14,97 GB   |    Скачан:  116 раз
Сидов:  1  [  0 KB/s  ]  
 
Автор Сообщение

МихаНЕзатор

[] 

Год выпуска: 2011
Страна: США
Жанр: комедия
Продолжительность: 00:21
Перевод: Профессиональный двухголосый закадровый(Кубик в кубе)
Режиссер: Энтони Руссо
Субтитры: нет

В ролях: Джоэль МакХэйл (Joel McHale), Джиллиан Джейкобс (Gillian Jacobs), Дэнни Пуди (Danny Pudi), Ивет Николь Браун (Yvette Nicole Brown), Чеви Чейз (Chevy Chase), Дональд Гловер (Donald Glover), Элисон Бри (Alison Brie), Кен Йонг (Ken Jeong), Эрик Кристиан Олсен (Eric Christian Olsen), Джим Раш (Jim Rash)

Описание: Сериал рассказывает о студенческом сообществе, которое состоит из школьных лузеров, недавно разведенных домохозяек и пожилых людей, старающихся сохранить трезвый ум.



Озвучка: Кубик в кубе
Перевод: Джекетеур
Редакция: Эль Брухо
Качество: WEB-DL 720p
Формат: MKV
Видео: AVC at 3 993 Kbps 1280 x 720 (1.778) at 23.976 fps 0.181 bit/pixel
Аудио Rus: AC-3 at 192 Kbps 2 channels, 48.0 KHz
Аудио Eng: AC-3 at 384 Kbps 6 channels, 48.0 KHz

АНОНСЫ ПОПУЛЯРНЫХ РАЗДАЧ
General
Complete name : Community Season 3 WEB-DL 720p Kybik v KybeCommunity.s03e01.rus.eng.720p.Kybik.v.Kybe.mkv
Format : Matroska
File size : 701 MiB
Duration : 21mn 21s
Overall bit rate : 4 588 Kbps
Encoded date : UTC 2011-09-29 19:44:01
Writing application : mkvmerge v3.3.0 ('Language') built on Mar 24 2010 14:59:24
Writing library : libebml v0.8.0 + libmatroska v0.9.0

Video
ID : 1
Format : AVC
Format/Info : Advanced Video Codec
Format profile : High@L3.1
Format settings, CABAC : No
Format settings, ReFrames : 2 frames
Muxing mode : Container profile=Unknown@3.1
Codec ID : V_MPEG4/ISO/AVC
Duration : 21mn 21s
Bit rate mode : Variable
Bit rate : 3 920 Kbps
Width : 1 280 pixels
Height : 720 pixels
Display aspect ratio : 16:9
Frame rate : 23.976 fps
Color space : YUV
Chroma subsampling : 4:2:0
Bit depth : 8 bits
Scan type : Progressive
Bits/(Pixel*Frame) : 0.177
Stream size : 599 MiB (85%)
Color primaries : BT.709-5, BT.1361, IEC 61966-2-4, SMPTE RP177
Transfer characteristics : BT.709-5, BT.1361
Matrix coefficients : BT.709-5, BT.1361, IEC 61966-2-4 709, SMPTE RP177

Audio #1
ID : 2
Format : AC-3
Format/Info : Audio Coding 3
Mode extension : CM (complete main)
Codec ID : A_AC3
Duration : 21mn 21s
Bit rate mode : Constant
Bit rate : 192 Kbps
Channel(s) : 2 channels
Channel positions : Front: L R
Sampling rate : 48.0 KHz
Bit depth : 16 bits
Stream size : 29.3 MiB (4%)
Language : Russian

Audio #2
ID : 3
Format : AC-3
Format/Info : Audio Coding 3
Mode extension : CM (complete main)
Codec ID : A_AC3
Duration : 21mn 21s
Bit rate mode : Constant
Bit rate : 384 Kbps
Channel(s) : 6 channels
Channel positions : Front: L C R, Side: L R, LFE
Sampling rate : 48.0 KHz
Bit depth : 16 bits
Stream size : 58.7 MiB (8%)
Language : English
1. Biology 101
2. Geography of Global Conflict
3. Competitive Ecology
4. Remedial Chaos Theory
5. Horror Fiction in Seven Spooky Steps
6. Advanced Gay
7. Studies in Modern Movement
8. Dоcumentary Filmmaking: Redux
9. Indoor Sports with Christian Bale
10. Contemporary Impressionists
11. Urban Matrimony and the Sandwich Arts
12. Contemporary Impressionists
13. Digital Exploration of Interior Design
14.Pillows and Blankets
15. Origins of Vampire Mythology
16. Virtual Systems Analysis
17. Basic Lupine Urology
18. Course Listing Unavailable
19. Curriculum Unavailable
20. Digital Estate Planning
21. The First Chang Dynasty
22. Introduction to Finality
Внимание! Раздача ведётся путём добавления новых серий; при каждом добавлении создётся новый торрент. Чтобы начать докачку новой серии, пользователям необходимо сделать следующее:
(1) остановить скачивание,
(2) удалить старый торрент у себя из клиента (старые серии удалять не надо),
(3) скачать новый торрент и запустить его у себя в клиенте вместо старого, при этом указать клиенту путь в старую папку куда и должно происходить скачивание новых серий.
Ваш клиент при этом должен произвести хеширование (проверку) старой папки (если не производит сам - помогите ему сделать это), и будет докачивать только те серии которых у вас ещё нет. Старые серии при этом не удаляются, а продолжают раздаваться!
Eсли вы уже удалили старые серии, то предотвратить повторную закачку старых серий можно, отжав галочку в соответсвующих местах при запуске нового торрента. По возможности, желательно не удалять старые серии как можно дольше чтобы релизёр не столько продолжал раздавать старые серии, а смог сконцентрироваться на новых.



Скачать Сообщество.Community.(сезон.03).(Энтони.Руссо).[2011-2012.комедия.WEB-DL].[720p].[DVO.(Кубик.в.Кубе)].torrent без регистрации
Золото ЗОЛОТАЯ РАЗДАЧА! СКАЧАННОЕ НЕ ЗАСЧИТЫВАЕТСЯ! Золото
Дата: Зарегистрирован   [ Тип: внутренний ] Как тут cкачать?
MAGNET ссылка
MAGNET ссылка


Скачать .torrent

40 KB

Статус: проверено DHT
Скачан: торрент - 116 раз, раздача полностью - 14 раз
Размер: 14,97 GB
Оценка:  - (Голосов: 0)
Поблагодарили: 0
Поделиться ссылкой на эту раздачу с друзьями:
В контактеFacebookОдноклассникиTwitterLivejournalМой МирLiveinternet
 

 
Показать сообщения:    


Вы не можете начинать темы
Вы не можете отвечать на сообщения
Вы не можете редактировать свои сообщения
Вы не можете удалять свои сообщения
Вы не можете голосовать в опросах
Вы не можете прикреплять файлы к сообщениям
Вы можете скачивать файлы