Loading...
Error

Скачать Скандал / Scandal (сезон 03) (Роксанн Даусон) [2013, драма, WEB-DL] [720p] [MVO (Fox Life)] торрент без регистрации

 
Статистика раздачи
Размер:  25,32 GB   |    Скачан:  3624 раза
Сидов:  1  [  0 KB/s  ]  
 
Автор Сообщение

МихаНЕзатор

[] 

Информация о фильме
Название: Скандал
Оригинальное название: Scandal
Год выхода: 2013
Жанр: драма
Режиссер: Роксанн Даусон

В ролях: Керри Вашингтон, Генри Йен Кьюсик, Коламбус Шорт, Дэрби Стэнчфилд, Кэти Лоус, Гильермо Диас

О фильме: Специалист по связям с общественностью Оливия Поуп, ранее работавшая на президента США, создает свое антикризисное агенство, цель которого устранять проблемы высокопоставленных клиентов до того, как они станут всеобщим достоянием. Но если Вы посвящаете 24 часа в сутки решению проблем других людей, у Вас просто не будет времени, чтобы заняться своей собственной жизнью. Поэтому несмотря на то, что Оливия и ее команда самых блестящих специалистов прекрасно справляются с решением самых деликатных ситуаций своих клиентов, их собственная жизнь полна всякого рода проблем.

Релиз от:

Страна: США
Продолжительность: ~ 00:43:30
Перевод: Профессиональный многоголосый закадровый (Fox Life)

Файл
Кодек: MPEG-4 AVC
Качество: WEB-DL 720p
Видео: ~ 4000 Кбит/с, 1280x720
Звук: Русский (AC3, 2 ch, 192 Кбит/с), английский (AC3, 6 ch, 384 Кбит/с)

АНОНСЫ ПОПУЛЯРНЫХ РАЗДАЧ


13.07.2014 г. торент обновлён, добавлена 18 серия!

01. В обработке / It's Handled
02. Угадай, кто придет к обеду / Guess Who's Coming to Dinner
03. Миссис Смит едет в Вашингтон / Mrs. Smith Goes to Washington
04. Поздоровайся с моим маленьким другом / Say Hello to My Little Friend
05. Больше скота, меньше бык / More Cattle, Less Bul
06. Icarus
07. Everything's Coming Up Mellie
08. Vermont Is for Lovers, Too
09. YOLO
10. A Door Marked Exit
11. Ride, Sally, Ride
12. We Do Not Touch the First Ladies
13. No Sun on the Horizon
14. Kiss Kiss Bang Bang
15. Mama Said Knock You Out
16. The Fluffer
17. Flesh and Blood
18. The Price of Free and Fair Elections

Создателем сериала «Скандал» является Шонда Раймс, наиболее известная как создатель и производитель популярных телесериалов «Анатомия страсти» и «Частная практика».
В основу характера главной героини Оливии Поуп положена история жизни и карьеры Джуди Смит, бывшего руководителя пресс-центра Джорджа Буша-старшего, которая также является со-продюсером шоу.

Общее
Уникальный идентификатор : 230063810872982404140139856520469755464 (0xAD14ADA1A9657E6480150348E34F3648)
Полное имя : Scandal.s03e01.WEBDL.720p.NewStudio.TV.mkv
Формат : Matroska
Версия формата : Version 2
Размер файла : 1,39 Гбайт
Продолжительность : 43 м.
Общий поток : 4619 Кбит/сек
Дата кодирования : UTC 2013-12-03 17:58:34
Программа кодирования : mkvmerge v2.9.9 ('Tutu') built on Nov 25 2009 21:13:32
Библиотека кодирования : libebml v0.7.9 + libmatroska v0.8.1

Видео
Идентификатор : 1
Формат : AVC
Формат/Информация : Advanced Video Codec
Профиль формата : High@L3.1
Параметр CABAC формата : Нет
Параметр ReFrames формата : 2 кадра
Идентификатор кодека : V_MPEG4/ISO/AVC
Продолжительность : 43 м.
Битрейт : 3951 Кбит/сек
Ширина : 1280 пикселей
Высота : 720 пикселей
Соотношение сторон : 16:9
Режим частоты кадров : Постоянный
Частота кадров : 23,976 кадра/сек
Цветовое пространство : YUV
Субдискретизация насыщенности : 4:2:0
Битовая глубина : 8 бит
Тип развёртки : Прогрессивная
Бит/(Пиксели*Кадры) : 0.179
Размер потока : 1,19 Гбайт (86%)
Язык : English
Default : Нет
Forced : Нет
Основные цвета : BT.709
Характеристики трансфера : BT.709
Коэффициенты матрицы : BT.709

Аудио #1
Идентификатор : 2
Формат : AC-3
Формат/Информация : Audio Coding 3
Расширение режима : CM (complete main)
Параметр Endianness формата : Big
Идентификатор кодека : A_AC3
Продолжительность : 43 м.
Вид битрейта : Постоянный
Битрейт : 192 Кбит/сек
Каналы : 2 канала
Расположение каналов : Front: L R
Частота : 48,0 КГц
Битовая глубина : 16 бит
Метод сжатия : С потерями
Размер потока : 59,2 Мбайт (4%)
Язык : Russian
Default : Да
Forced : Да

Аудио #2
Идентификатор : 3
Формат : AC-3
Формат/Информация : Audio Coding 3
Расширение режима : CM (complete main)
Параметр Endianness формата : Big
Идентификатор кодека : A_AC3
Продолжительность : 43 м.
Вид битрейта : Постоянный
Битрейт : 384 Кбит/сек
Каналы : 6 каналов
Расположение каналов : Front: L C R, Side: L R, LFE
Частота : 48,0 КГц
Битовая глубина : 16 бит
Метод сжатия : С потерями
Размер потока : 118 Мбайт (8%)
Язык : English
Default : Нет
Forced : Нет



Скачать Скандал.Scandal.(сезон.03).(Роксанн.Даусон).[2013.драма.WEB-DL].[720p].[MVO.(Fox.Life)].torrent без регистрации
Золото ЗОЛОТАЯ РАЗДАЧА! СКАЧАННОЕ НЕ ЗАСЧИТЫВАЕТСЯ! Золото
Дата: Зарегистрирован   [ Тип: внутренний ] Как тут cкачать?
MAGNET ссылка
MAGNET ссылка


Скачать .torrent

128 KB

Статус: проверено DHT
Скачан: торрент - 3624 раз, раздача полностью - 2 раз
Размер: 25,32 GB
Оценка:  - (Голосов: 0)
Поблагодарили: 1
Поделиться ссылкой на эту раздачу с друзьями:
В контактеFacebookОдноклассникиTwitterLivejournalМой МирLiveinternet
 

 

МихаНЕзатор

[] 

Раздача обновлена.
 
Показать сообщения:    


Вы не можете начинать темы
Вы не можете отвечать на сообщения
Вы не можете редактировать свои сообщения
Вы не можете удалять свои сообщения
Вы не можете голосовать в опросах
Вы не можете прикреплять файлы к сообщениям
Вы можете скачивать файлы