Loading...
Error

Скачать Младенец на прогулке, или Ползком от гангстеров / Baby's Day Out (Патрик Рид Джонсон) [1994, комедия, криминал, приключения, семейный, HDTVRip-AVC] [MVO] торрент без регистрации

 
Статистика раздачи
Размер:  1,46 GB   |    Скачан:  117 раз
Сидов:  1  [  0 KB/s  ]  
 
Автор Сообщение

Marsianka

[] 

Младенец на прогулке, или Ползком от гангстеров / Baby's Day Out
Год выпуска: 1994
Страна: США
Жанр: комедия, криминал, приключения, семейный
Продолжительность: 01:34:48
Перевод: Профессиональный (многоголосый, закадровый) [XX век Fox]
Русские субтитры: нет

Режиссер: Патрик Рид Джонсон / Patrick Read Johnson

В ролях: Джо Мантенья, Лара Флинн Бойл, Джо Пантолиано, Брайан Хэйли, Синтия Никсон, Фред Долтон Томпсон, Мэттью Глэйв, Джон Невилл

Описание: Из богатой семьи похищают совершенно замечательного девятимесячного младенца, который обожает книжку с картинками про малыша Бу. Злодеи требуют огромный выкуп, но шустрого не по летам младенца горе-похитители ухитрились потерять - он от них уполз. Следует много смешных приключений, в результате которых выяснится, что мальчик следовал по маршруту малыша Бу из любимой книжки. Фильм весело потрафляет нашим здоровым садистским рефлексам, демонстрируя бесконечные и изощренные пытки и мучения, которым подвергают трех похитителей.



Качество: HDTVRip-AVC [Исходник HDTV 720p]
Формат: MKV
Видео кодек: H.264
Аудио кодек: AC3
Видео: 856x478 (16:9), 25 fps, H264, 2 008 Kbps, 0.196 bit/pixel
Аудио: 48 kHz, AC3 Dolby Digital, 1/0 (C) ch, ~192 kbps
Раздача от:
D:Мои рипыBaby's.Day.Out.1994.HDTVRip-AVC.dexter_lex.mkv
General
Unique ID : 181583040199188737666515417085081631804 (0x889B9F176DD5FD0AA964DBADA43D3C3C)
Complete name : D:Мои рипыBaby's.Day.Out.1994.HDTVRip-AVC.dexter_lex.mkv
Format : Matroska
Format version : Version 4 / Version 2
File size : 1.46 GiB
Duration : 1h 34mn
Overall bit rate : 2 202 Kbps
Encoded date : UTC 2014-01-22 04:22:48
Writing application : mkvmerge v6.1.0 ('Old Devil') built on Mar 4 2013 09:10:42
Writing library : libebml v1.3.0 + libmatroska v1.4.0
Video #1
ID : 1
Format : AVC
Format/Info : Advanced Video Codec
Format profile : High@L4.1
Format settings, CABAC : Yes
Format settings, ReFrames : 12 frames
Codec ID : V_MPEG4/ISO/AVC
Duration : 1h 34mn
Bit rate : 2 008 Kbps
Width : 856 pixels
Height : 478 pixels
Display aspect ratio : 16:9
Frame rate : 25.000 fps
Color space : YUV
Chroma subsampling : 4:2:0
Bit depth : 8 bits
Scan type : Progressive
Bits/(Pixel*Frame) : 0.196
Stream size : 1.30 GiB (89%)
Writing library : x264 core 130 r2273 b3065e6
Encoding settings : cabac=1 / ref=12 / deblock=1:-2:-1 / analyse=0x3:0x113 / me=umh / subme=10 / psy=1 / psy_rd=1.00:0.15 / mixed_ref=1 / me_range=32 / chroma_me=1 / trellis=2 / 8x8dct=1 / cqm=0 / deadzone=21,11 / fast_pskip=0 / chroma_qp_offset=-3 / threads=6 / lookahead_threads=1 / sliced_threads=0 / nr=0 / decimate=1 / interlaced=0 / bluray_compat=0 / constrained_intra=0 / bframes=9 / b_pyramid=2 / b_adapt=2 / b_bias=0 / direct=3 / weightb=1 / open_gop=0 / weightp=2 / keyint=250 / keyint_min=25 / scenecut=40 / intra_refresh=0 / rc_lookahead=60 / rc=2pass / mbtree=1 / bitrate=2008 / ratetol=1.0 / qcomp=0.60 / qpmin=0 / qpmax=69 / qpstep=4 / cplxblur=20.0 / qblur=0.5 / ip_ratio=1.40 / aq=1:1.00
Language : English
Default : Yes
Forced : No
Audio #2
ID : 2
Format : AC-3
Format/Info : Audio Coding 3
Mode extension : CM (complete main)
Codec ID : A_AC3
Duration : 1h 34mn
Bit rate mode : Constant
Bit rate : 192 Kbps
Channel(s) : 1 channel
Channel positions : Front: C
Sampling rate : 48.0 KHz
Bit depth : 16 bits
Compression mode : Lossy
Stream size : 130 MiB (9%)
Default : Yes
Forced : No



Скачать Младенец.на.прогулке.или.Ползком.от.гангстеров.Baby's.Day.Out.(Патрик.Рид.Джонсон).[1994.комедия.криминал.приключения.семейный.HDTVRip-AVC].[MVO].torrent без регистрации
Золото ЗОЛОТАЯ РАЗДАЧА! СКАЧАННОЕ НЕ ЗАСЧИТЫВАЕТСЯ! Золото
Дата: Зарегистрирован   [ Тип: внутренний ] Как тут cкачать?
MAGNET ссылка
MAGNET ссылка


Скачать .torrent

15 KB

Статус: проверено DHT
Скачан: торрент - 117 раз, раздача полностью - 106 раз
Размер: 1,46 GB
Оценка:  - (Голосов: 0)
Поблагодарили: 1
Поделиться ссылкой на эту раздачу с друзьями:
В контактеFacebookОдноклассникиTwitterLivejournalМой МирLiveinternet
 

 
Показать сообщения:    


Вы не можете начинать темы
Вы не можете отвечать на сообщения
Вы не можете редактировать свои сообщения
Вы не можете удалять свои сообщения
Вы не можете голосовать в опросах
Вы не можете прикреплять файлы к сообщениям
Вы можете скачивать файлы