Loading...
Error

Скачать Глаз / The Eye (Давид Моро, Ксавьер Палю) [2008, ужасы, триллер, драма, HDRip] [Dub]+[Оригинал] торрент без регистрации

 
Статистика раздачи
Размер:  2,15 GB   |    Скачан:  124 раза
Сидов:  1  [  0 KB/s  ]  
 
Автор Сообщение

Marsianka

[] 

Информация о фильме
Название: Глаз
Оригинальное название: The Eye
Год выхода: 2008
Жанр: ужасы, триллер, драма
Режиссер: Давид Моро, Ксавьер Палю

В ролях: Джессика Альба, Алессандро Нивола, Паркер Поузи, Раде Шербеджия, Фернанда Ромеро, Рэйчел Тикотин, Обба Бабатунде, Дэнни Мора, Хлоя Грейс Морец, Бретт Хаворт

О фильме:
Сидни ослепла еще в детстве. Долгие годы в абсолютной темноте она терпеливо ждала того часа, когда с помощью современной медицины вновь обретёт зрение. И вот, спустя двадцать лет, наступил долгожданный момент ей приживляют донорскую роговицу.

Однако вскоре пересаженным ей донорским глазом она начинает видеть в зеркале смутные образы. В поисках ответов Сидни пытается выяснить, что случилось с предыдущим обладателем глаза.



Страна: США, Канада
Продолжительность: 01:36:33
Перевод: Профессиональный (полное дублирование)
Субтитры: отсутствуют

Файл
Качество: HDRip
Видео кодек: XviD
Аудио кодек: AC3
Видео: 720x304 (2.37:1), 23.976 fps, XviD build 73 ~2272 kbps avg, 0.433 bit/pixel

Рип от: BroadCastller

Семпл
Аудио#1: Русский: 48 kHz, AC3 Dolby Digital, 3/2 (L,C,R,l,r) + LFE ch, ~448.00 kbps avg | Профессиональный (полное дублирование)
Аудио#2: Английский: 48 kHz, AC3 Dolby Digital, 3/2 (L,C,R,l,r) + LFE ch, ~448.00 kbps avg | Оригинал
General
Complete name : E:TorrentGlaz.2008.HDRip.2100MB.avi
Format : AVI
Format/Info : Audio Video Interleave
Format profile : OpenDML
File size : 2.15 GiB
Duration : 1h 36mn
Overall bit rate : 3 186 Kbps
Writing application : VirtualDubMod 1.5.10.2 (build 2540/release)
Writing library : VirtualDubMod build 2540/release

Video
ID : 0
Format : MPEG-4 Visual
Format profile : Advanced Simple@L5
Format settings, BVOP : 1
Format settings, QPel : No
Format settings, GMC : No warppoints
Format settings, Matrix : Custom
Codec ID : XVID
Codec ID/Hint : XviD
Duration : 1h 36mn
Bit rate : 2 272 Kbps
Width : 720 pixels
Height : 304 pixels
Display aspect ratio : 2.35:1
Frame rate : 23.976 fps
Color space : YUV
Chroma subsampling : 4:2:0
Bit depth : 8 bits
Scan type : Progressive
Compression mode : Lossy
Bits/(Pixel*Frame) : 0.433
Stream size : 1.53 GiB (71%)
Writing library : XviD 73

Audio #1
ID : 1
Format : AC-3
Format/Info : Audio Coding 3
Mode extension : CM (complete main)
Format settings, Endianness : Big
Codec ID : 2000
Duration : 1h 36mn
Bit rate mode : Constant
Bit rate : 448 Kbps
Channel(s) : 6 channels
Channel positions : Front: L C R, Side: L R, LFE
Sampling rate : 48.0 KHz
Bit depth : 16 bits
Compression mode : Lossy
Stream size : 309 MiB (14%)
Alignment : Split accross interleaves
Interleave, duration : 42 ms (1.00 video frame)
Interleave, preload duration : 500 ms

Audio #2
ID : 2
Format : AC-3
Format/Info : Audio Coding 3
Mode extension : CM (complete main)
Format settings, Endianness : Big
Codec ID : 2000
Duration : 1h 36mn
Bit rate mode : Constant
Bit rate : 448 Kbps
Channel(s) : 6 channels
Channel positions : Front: L C R, Side: L R, LFE
Sampling rate : 48.0 KHz
Bit depth : 16 bits
Compression mode : Lossy
Stream size : 309 MiB (14%)
Alignment : Split accross interleaves
Interleave, duration : 42 ms (1.00 video frame)
Interleave, preload duration : 500 ms

















Скачать Глаз.The.Eye.(Давид.Моро.Ксавьер.Палю).[2008.ужасы.триллер.драма.HDRip].[Dub]+[Оригинал].torrent без регистрации
Золото ЗОЛОТАЯ РАЗДАЧА! СКАЧАННОЕ НЕ ЗАСЧИТЫВАЕТСЯ! Золото
Дата: Зарегистрирован   [ Тип: внутренний ] Как тут cкачать?
MAGNET ссылка
MAGNET ссылка


Скачать .torrent

11 KB

Статус: проверено DHT
Скачан: торрент - 124 раз, раздача полностью - 86 раз
Размер: 2,15 GB
Оценка:  5 (Голосов: 1)
Поблагодарили: 4
Поделиться ссылкой на эту раздачу с друзьями:
В контактеFacebookОдноклассникиTwitterLivejournalМой МирLiveinternet
 

 
Показать сообщения:    


Вы не можете начинать темы
Вы не можете отвечать на сообщения
Вы не можете редактировать свои сообщения
Вы не можете удалять свои сообщения
Вы не можете голосовать в опросах
Вы не можете прикреплять файлы к сообщениям
Вы можете скачивать файлы