Loading...
Error

Скачать Дневник баскетболиста / The Basketball Diaries (Скотт Кэлверт) [1995, драма, криминал, биография, спорт, BDRip-AVC] [MVO] торрент без регистрации

 
Статистика раздачи
Размер:  2,18 GB   |    Скачан:  122 раза

Полного источника не было: 30 минут

 
Автор Сообщение

Marsianka

[] 

Название: Дневник баскетболиста
Оригинальное название: The Basketball Diaries
Год выхода: 1995
Жанр: драма, криминал, биография, спорт
Режиссер: Скотт Кэлверт
В ролях: Леонардо ДиКаприо, Лоррейн Бракко, Мэрилин Сокол, Джеймс Мадио, Патрик МакГоу, Марк Уолберг, Рой Купер, Винсент Пасторе, Бруно Кёрби

Описание:
Опий умеет ждатьВ его власти, когда-нибудь, будет и Джим. За очередную дозу он готов воровать, убивать, продаваться! Это будет когда-нибудь Дело времениОпий умеет ждать. Повесть о погружении на самое дно улицы известного музыканта и поэта Джима Кэролла. Снятая в жестоком стиле, картина которая шокирует своими откровенными сценами.



Выпущено: США
Продолжительность: 01:41:59
Перевод: Многоголосый закадровый, R5

Файл
Формат: MKV
Качество: BDRip-AVC
Видео: 1136x640, 23.976 fps, AVC, 2605 kbps
Аудио: 48 kHz, AC3 Dolby Digital, 3/2 (L,C,R,l,r) + LFE ch, ~448 kbps

General
Unique ID : 202228880659941320583469276959338273301 (0x9823DD9DBF6B64A2B2104E67005E1A15)
Complete name : D:КИНОDnevnik.Basketbolista(1995).BDRip-AVC.[DoMiNo].mkv
Format : Matroska
Format version : Version 2
File size : 2.18 GiB
Duration : 1h 41mn
Overall bit rate : 3 053 Kbps
Encoded date : UTC 2014-02-15 02:01:46
Writing application : mkvmerge v5.8.0 ('No Sleep / Pillow') built on Sep 2 2012 15:37:04
Writing library : libebml v1.2.3 + libmatroska v1.3.0

Video
ID : 1
Format : AVC
Format/Info : Advanced Video Codec
Format profile : High@L4.1
Format settings, CABAC : Yes
Format settings, ReFrames : 12 frames
Codec ID : V_MPEG4/ISO/AVC
Duration : 1h 41mn
Bit rate : 2 605 Kbps
Width : 1 136 pixels
Height : 640 pixels
Display aspect ratio : 16:9
Frame rate mode : Constant
Frame rate : 23.976 fps
Color space : YUV
Chroma subsampling : 4:2:0
Bit depth : 8 bits
Scan type : Progressive
Bits/(Pixel*Frame) : 0.149
Stream size : 1.81 GiB (83%)
Writing library : x264 core 125 r2208 d9d2288
Encoding settings : cabac=1 / ref=12 / deblock=1:-2:-2 / analyse=0x3:0x113 / me=umh / subme=11 / psy=1 / psy_rd=1.00:0.20 / mixed_ref=1 / me_range=32 / chroma_me=1 / trellis=2 / 8x8dct=1 / cqm=0 / deadzone=21,11 / fast_pskip=0 / chroma_qp_offset=-6 / threads=6 / lookahead_threads=6 / sliced_threads=0 / slices=4 / nr=0 / decimate=0 / interlaced=0 / bluray_compat=0 / constrained_intra=0 / bframes=4 / b_pyramid=2 / b_adapt=2 / b_bias=0 / direct=3 / weightb=1 / open_gop=1 / weightp=2 / keyint=240 / keyint_min=23 / scenecut=40 / intra_refresh=0 / rc_lookahead=60 / rc=2pass / mbtree=1 / bitrate=2605 / ratetol=1.0 / qcomp=0.60 / qpmin=0 / qpmax=69 / qpstep=4 / cplxblur=20.0 / qblur=0.5 / vbv_maxrate=17500 / vbv_bufsize=14000 / nal_hrd=none / ip_ratio=1.40 / aq=2:1.50
Default : Yes
Forced : No
Color primaries : Generic film

Audio
ID : 2
Format : AC-3
Format/Info : Audio Coding 3
Mode extension : CM (complete main)
Format settings, Endianness : Big
Codec ID : A_AC3
Duration : 1h 41mn
Bit rate mode : Constant
Bit rate : 448 Kbps
Channel(s) : 6 channels
Channel positions : Front: L C R, Side: L R, LFE
Sampling rate : 48.0 KHz
Bit depth : 16 bits
Compression mode : Lossy
Stream size : 327 MiB (15%)
Default : Yes
Forced : No



Скачать Дневник.баскетболиста.The.Basketball.Diaries.(Скотт.Кэлверт).[1995.драма.криминал.биография.спорт.BDRip-AVC].[MVO].torrent без регистрации
Золото ЗОЛОТАЯ РАЗДАЧА! СКАЧАННОЕ НЕ ЗАСЧИТЫВАЕТСЯ! Золото
Дата: Зарегистрирован   [ Тип: внутренний ] Как тут cкачать?
MAGNET ссылка
MAGNET ссылка


Скачать .torrent

11 KB

Статус: проверено DHT
Скачан: торрент - 122 раз, раздача полностью - 28 раз
Размер: 2,18 GB
Оценка:  - (Голосов: 0)
Поблагодарили: 2
Поделиться ссылкой на эту раздачу с друзьями:
В контактеFacebookОдноклассникиTwitterLivejournalМой МирLiveinternet
 

 
Показать сообщения:    


Вы не можете начинать темы
Вы не можете отвечать на сообщения
Вы не можете редактировать свои сообщения
Вы не можете удалять свои сообщения
Вы не можете голосовать в опросах
Вы не можете прикреплять файлы к сообщениям
Вы можете скачивать файлы