Loading...
Error

Скачать Ангар 18 / Hangar 18 (Джеймс Л. Конуэй) [1980, фантастика, боевик, триллер, биография, DVDRip] [Dub]+[DVO]+[AVO]+[Оригинал] торрент без регистрации

 
Статистика раздачи
Размер:  2,18 GB   |    Скачан:  110 раз
Сидов:  4  [  0 KB/s  ]  
 
Автор Сообщение

Marsianka

[] 


Страна: США / Sunn Classic Pictures Inc.
Жанр: фантастика, боевик, триллер, биография
Год выпуска: 1980
Продолжительность: 01:37:30

Режиссер: Джеймс Л. Конуэй / James L. Conway

В ролях: Гари Коллинз, Роберт Вон, Джеймс Хэмптон, Филип Эбботт, Джозеф Кампанелла, Памела Беллвуд, Том Хэллик, Стивен Китс, Уильям Шэллерт, Дэррен МакГэвин...

Роли дублировали: Игорь Окрепилов, Александр Демьяненко, Вячеслав Захаров, Юрий Дедович, Владимир Татосов...

Описание: Во время запуска спутника с космического челнока NASA происходит катастрофа, в результате которой погибает один из астронавтов. Как потом выясняется, причиной взрыва становится столкновение спутника с НЛО. Неопознанный объект совершает аварийную посадку на Земле и попадает в руки спецслужб правительства. Небольшая группа военных и политиков, опасающихся ненужной и рискованной шумихи вокруг этого ЧП накануне президентских выборов, делают все, чтобы сохранить происшествие в тайне. Вернувшихся на землю астронавтов изолируют, а НЛО отправляют для исследований на военную базу и прячут в ангаре под 18. Но друзья погибшего астронавта пытаются узнать правду о загадочном объекте, встреченном на орбите, и не хотят сидеть сложа руки, и предпринимают собственное и весьма рискованное расследование...
В 80-х годах этот фильм демонстрировался в кинотеатрах по всему СССР и снискал большую популярность у зрителей.

Качество: BDRip / Blu-ray 1080p
Формат: AVI

Видео: 720x400 (16:9), 23.976 fps, XviD ~ 2399 kbps avg, 0.347 bit/
Профессиональный (дублированный) - Советский дубляж (со вставками двухголосого закадрового)
Профессиональный (двухгоголосый, закадровый): НТВ+
Авторский (одноголосый): Юрий Сербин

Cубтитры: нет
Оригинальная аудиодорожка: английский
Аудио 1: 48 kHz, Dolby AC3, 2 ch, 192 kbps, русский дублированный
Аудио 2: 48 kHz, Dolby AC3, 2 ch, 192 kbps, русский двухгоголосый
Аудио 3: 48 kHz, Dolby AC3, 2 ch, 192 kbps, русский авторский
Аудио 4: 48 kHz, Dolby AC3, 2 ch, 192 kbps, английский

Общее
Полное имя : Angar.18.1980.D.BDRip_[New-Team]_by_avproh.avi
Формат : AVI
Формат/Информация : Audio Video Interleave
Профиль формата : OpenDML
Размер файла : 2,18 Гбайт
Продолжительность : 1 ч. 37 м.
Общий поток : 3197 Кбит/сек
Программа кодирования : VirtualDubModRus 1.5.10.2 (build 2542/release)
Библиотека кодирования : VirtualDubMod build 2542/release

Видео
Идентификатор : 0
Формат : MPEG-4 Visual
Профиль формата : Advanced Simple@L5
Параметр BVOP формата : 1
Параметр QPel формата : Нет
Параметр GMC формата : Без точки перехода
Параметр матрицы формата : Выборочная
Идентификатор кодека : XVID
Идентификатор кодека/Подсказка : XviD
Продолжительность : 1 ч. 37 м.
Битрейт : 2399 Кбит/сек
Ширина : 720 пикселей
Высота : 400 пикселей
Соотношение сторон : 16:9
Частота кадров : 23,976 кадра/сек
Цветовое пространство : YUV
Субдискретизация насыщенности : 4:2:0
Битовая глубина : 8 бит
Тип развёртки : Прогрессивная
Метод сжатия : С потерями
Бит/(Пиксели*Кадры) : 0.347
Размер потока : 1,63 Гбайт (75%)
Библиотека кодирования : XviD 73

Аудио #1
Идентификатор : 1
Формат : AC-3
Формат/Информация : Audio Coding 3
Расширение режима : CM (complete main)
Параметр Endianness формата : Big
Идентификатор кодека : 2000
Продолжительность : 1 ч. 37 м.
Вид битрейта : Постоянный
Битрейт : 192 Кбит/сек
Каналы : 2 канала
Расположение каналов : Front: L R
Частота : 48,0 КГц
Битовая глубина : 16 бит
Метод сжатия : С потерями
Размер потока : 134 Мбайт (6%)
Выравнивание : Разделение по промежуткам
Продолжительность промежутка : 42 мс. (1,00 видеокадр)
Время предзагрузки промежутка : 500 мс.

Аудио #2
Идентификатор : 2
Формат : AC-3
Формат/Информация : Audio Coding 3
Расширение режима : CM (complete main)
Параметр Endianness формата : Big
Идентификатор кодека : 2000
Продолжительность : 1 ч. 37 м.
Вид битрейта : Постоянный
Битрейт : 192 Кбит/сек
Каналы : 2 канала
Расположение каналов : Front: L R
Частота : 48,0 КГц
Битовая глубина : 16 бит
Метод сжатия : С потерями
Размер потока : 134 Мбайт (6%)
Выравнивание : Разделение по промежуткам
Продолжительность промежутка : 42 мс. (1,00 видеокадр)
Время предзагрузки промежутка : 500 мс.

Аудио #3
Идентификатор : 3
Формат : AC-3
Формат/Информация : Audio Coding 3
Расширение режима : CM (complete main)
Параметр Endianness формата : Big
Идентификатор кодека : 2000
Продолжительность : 1 ч. 37 м.
Вид битрейта : Постоянный
Битрейт : 192 Кбит/сек
Каналы : 2 канала
Расположение каналов : Front: L R
Частота : 48,0 КГц
Битовая глубина : 16 бит
Метод сжатия : С потерями
Размер потока : 134 Мбайт (6%)
Выравнивание : Разделение по промежуткам
Продолжительность промежутка : 42 мс. (1,00 видеокадр)
Время предзагрузки промежутка : 500 мс.

Аудио #4
Идентификатор : 4
Формат : AC-3
Формат/Информация : Audio Coding 3
Расширение режима : CM (complete main)
Параметр Endianness формата : Big
Идентификатор кодека : 2000
Продолжительность : 1 ч. 37 м.
Вид битрейта : Постоянный
Битрейт : 192 Кбит/сек
Каналы : 2 канала
Расположение каналов : Front: L R
Частота : 48,0 КГц
Битовая глубина : 16 бит
Метод сжатия : С потерями
Размер потока : 134 Мбайт (6%)
Выравнивание : Разделение по промежуткам
Продолжительность промежутка : 42 мс. (1,00 видеокадр)
Время предзагрузки промежутка : 500 мс.
Раздача от:



Скачать Ангар.18.Hangar.18.(Джеймс.Л.Конуэй).[1980.фантастика.боевик.триллер.биография.DVDRip].[Dub]+[DVO]+[AVO]+[Оригинал].torrent без регистрации
Золото ЗОЛОТАЯ РАЗДАЧА! СКАЧАННОЕ НЕ ЗАСЧИТЫВАЕТСЯ! Золото
Дата: Зарегистрирован   [ Тип: внешний ] Как тут cкачать?
MAGNET ссылка
MAGNET ссылка


Скачать .torrent

12 KB

Статус: проверено DHT
Скачан: торрент - 110 раз, раздача полностью - 30 раз
Размер: 2,18 GB
Оценка:  - (Голосов: 0)
Поблагодарили: 2
Поделиться ссылкой на эту раздачу с друзьями:
В контактеFacebookОдноклассникиTwitterLivejournalМой МирLiveinternet
 

 
Показать сообщения:    


Вы не можете начинать темы
Вы не можете отвечать на сообщения
Вы не можете редактировать свои сообщения
Вы не можете удалять свои сообщения
Вы не можете голосовать в опросах
Вы не можете прикреплять файлы к сообщениям
Вы можете скачивать файлы