Loading...
Error

Скачать Откройте, полиция! / «Продажные» / Les Ripoux (Клод Зиди) [1984, комедия, криминал, BDRip] [1080] [MVO] торрент без регистрации

 
Статистика раздачи
Размер:  4,36 GB   |    Скачан:  151 раз
Сидов:  1  [  0 KB/s  ]  
 
Автор Сообщение

COLLAPSE

[] 


Откройте, полиция! / Продажные / Les Ripoux


Название: Откройте, полиция! (Продажные)
Оригинальное название: Les Ripoux
Страна: Франция
Продолжительность: 01:46:38
Перевод: профессиональный многоголосый
Год выпуска: 1984
Жанр: Комедия, криминал
Режиссер: Клод Зиди
В ролях: Филипп Нуаре, Тьерри Лермитт, Грас Де Капитани, Режин, Клод Броссе, Альбер Симоно, Жюльен Гийомар, Анри Атталь, Жан-Клод Буйо, Франсуа Каде, Камель Шериф, Жан Шерлян, Луиза Шевалье, Мед Салах Шурфи, Жак Сирон, Мишель Кремадес, Пьер Батон, Ален Давид, Шейк Дукуре, Пьер Фраг

Описание: Очень популярная во Франции (и когда-то в СССР) едкая сатирическая комедия о тандеме парижских полицейских. Один из них, многоопытный Рене, наслаждается преимуществами своего положения. Он вовсе не крупный коррупмционер, просто "не замечает" некоторых правонарушений. А в ответ его кормят, поят, оказывают ему разные услуги. Франсуа, молодому напарнику Рене, поначалу все это кажется неправильным. Но наставник умеет убеждать...


http://multi-up.com/951618
• Otkroyte.policiya(1984) BDRip 1080p.mkv
Формат: Matroska [4.36 GiB]
Видео: AVC, 1804x1080 (1.670), 5292 kbps (0.113 b/px), 24.00 fps
Аудио: AC3, 449 kbps (CBR), 48.0 KHz (16 bits), 6 ch, Russian
Формат : Matroska
Версия формата : Version 2
Размер файла : 4,36 Гбайт
Продолжительность : 1 ч. 46 м.
Общий поток : 5856 Кбит/сек
Название фильма : Otkroyte.policiya.1984.BDRip.(1080p) =collapse=
Дата кодирования : UTC 2014-02-16 07:21:20
Программа кодирования : mkvmerge v3.4.0 ('Rapunzel') сборка от May 15 2010 09:38:20
Библиотека кодирования : libebml v0.8.0 + libmatroska v0.9.0

Видео
Идентификатор : 1
Формат : AVC
Формат/Информация : Advanced Video Codec
Профиль формата : High@L4.1
Параметр CABAC формата : Да
Параметр ReFrames формата : 2 кадра
Идентификатор кодека : V_MPEG4/ISO/AVC
Продолжительность : 1 ч. 46 м.
Битрейт : 5292 Кбит/сек
Ширина : 1804 пикселя
Высота : 1080 пикселей
Соотношение сторон : 1,670
Режим частоты кадров : Постоянный
Частота кадров : 24,000 кадра/сек
Цветовое пространство : YUV
Субдискретизация насыщенности : 4:2:0
Битовая глубина : 8 бит
Тип развёртки : Прогрессивная
Бит/(Пиксели*Кадры) : 0.113
Размер потока : 3,94 Гбайт (90%)
Библиотека кодирования : x264 core
Default : Да
Forced : Нет
Основные цвета : BT.709
Характеристики трансфера : BT.709
Коэффициенты матрицы : BT.709

Аудио
Идентификатор : 2
Формат : AC-3
Формат/Информация : Audio Coding 3
Расширение режима : CM (complete main)
Параметр Endianness формата : Big
Идентификатор кодека : A_AC3
Продолжительность : 1 ч. 46 м.
Вид битрейта : Постоянный
Битрейт : 448 Кбит/сек
Каналы : 6 каналов
Расположение каналов : Front: L C R, Side: L R, LFE
Частота : 48,0 КГц
Битовая глубина : 16 бит
Метод сжатия : С потерями
Размер потока : 342 Мбайт (8%)
Язык : Russian
Default : Да
Forced : Нет





Скачать Откройте.полиция!.«Продажные».Les.Ripoux.(Клод.Зиди).[1984.комедия.криминал.BDRip].[1080].[MVO].torrent без регистрации
Золото ЗОЛОТАЯ РАЗДАЧА! СКАЧАННОЕ НЕ ЗАСЧИТЫВАЕТСЯ! Золото
Дата: Зарегистрирован   [ Тип: внутренний ] Как тут cкачать?
MAGNET ссылка
MAGNET ссылка


Скачать .torrent

11 KB

Статус: проверено DHT
Скачан: торрент - 151 раз, раздача полностью - 0 раз
Размер: 4,36 GB
Оценка:  5 (Голосов: 1)
Поблагодарили: 1
Поделиться ссылкой на эту раздачу с друзьями:
В контактеFacebookОдноклассникиTwitterLivejournalМой МирLiveinternet
 

 

deadmauVlad

[] 

укажите озвучку в заголовке
 
Показать сообщения:    


Вы не можете начинать темы
Вы не можете отвечать на сообщения
Вы не можете редактировать свои сообщения
Вы не можете удалять свои сообщения
Вы не можете голосовать в опросах
Вы не можете прикреплять файлы к сообщениям
Вы можете скачивать файлы