Loading...
Error

Скачать Откройте, полиция! 2 / Ripoux Contre Ripoux (Клод Зиди) [1990, комедия, криминал, BDRip] [1080] [MVO] торрент без регистрации

 
Статистика раздачи
Размер:  4,38 GB   |    Скачан:  167 раз
Сидов:  1  [  0 KB/s  ]  
 
Автор Сообщение

COLLAPSE

[] 

Откройте, полиция! 2 (Продажные против продажных) / Ripoux contre rip



Название: Откройте, полиция! 2 (Продажные против продажных)
Оригинальное название: Ripoux contre ripoux
Страна: Франция
Студия: Films 7, Orly Films, Sédif Productions, TF1 Films Productions
Продолжительность: 01:46:11
Перевод: профессиональный многоголосый
Год выпуска: 1990
Жанр: Боевик, комедия, криминал
Режиссер: Клод Зиди
В ролях: Филипп Нуаре, Тьерри Лермитт, Ги Маршан, Жан-Пьер Кастальди, Грейс Де Капитани, Лин Рено, Мишель Омон, Жан-Клод Бриали, Жан Бенгиги, Кристиан Буйетт

Описание: Продажный и его неподкупный напарник попались на пустяке, и их выгнали из полиции, после чего им пришлось уехать на ферму к старому другу Нуаре. Пришедшая же им на смену пара негодяев поставила вымогательство на широкую ногу. С таким размахом, что все мелкие жулики, смеявшиеся над старостью и юностью наших героев, против которых дружно давали показания, просто взвыли. Взвыли и послали делегацию к отверженным бедолагам, забавляющимся мошенничеством на скачках.Они умоляли их вернуться и спасти от новых полицейских, по форме «работы» больше напоминающих беспредельных рэкитеров. И они вернулись..

• Otkroite.policiya-2.1990.BDRip.1080.mkv
Формат: Matroska [4.38 GiB]
Видео: AVC, 1754x1080 (1.624), 5345 kbps (0.118 b/px), 24.00 fps
Аудио: AC3, 449 kbps (CBR), 48.0 KHz (16 bits), 6 ch, Russian
ормат : Matroska
Версия формата : Version 2
Размер файла : 4,38 Гбайт
Продолжительность : 1 ч. 46 м.
Режим общего битрейта : Переменный
Общий поток : 5910 Кбит/сек
Название фильма : Otkroite.policiya-2.1986.BDRip.1080
Дата кодирования : UTC 2014-02-16 09:53:40
Программа кодирования : DVDFab
Библиотека кодирования : libebml v0.7.8 + libmatroska v0.8.1

Видео
Идентификатор : 1
Формат : AVC
Формат/Информация : Advanced Video Codec
Профиль формата : High@L4.0
Параметр CABAC формата : Да
Параметр ReFrames формата : 2 кадра
Идентификатор кодека : V_MPEG4/ISO/AVC
Продолжительность : 1 ч. 46 м.
Вид битрейта : Переменный
Битрейт : 5344 Кбит/сек
Максимальный битрейт : 8184 Кбит/сек
Ширина : 1754 пикселя
Высота : 1080 пикселей
Соотношение сторон : 16:10
Режим частоты кадров : Постоянный
Частота кадров : 24,000 кадра/сек
Цветовое пространство : YUV
Субдискретизация насыщенности : 4:2:0
Битовая глубина : 8 бит
Тип развёртки : Прогрессивная
Бит/(Пиксели*Кадры) : 0.118
Размер потока : 3,96 Гбайт (90%)
Default : Да
Forced : Нет

Аудио
Идентификатор : 2
Формат : AC-3
Формат/Информация : Audio Coding 3
Расширение режима : CM (complete main)
Параметр Endianness формата : Big
Идентификатор кодека : A_AC3
Продолжительность : 1 ч. 46 м.
Вид битрейта : Постоянный
Битрейт : 448 Кбит/сек
Каналы : 6 каналов
Расположение каналов : Front: L C R, Side: L R, LFE
Частота : 48,0 КГц
Битовая глубина : 16 бит
Метод сжатия : С потерями
Размер потока : 340 Мбайт (8%)
Язык : Russian
Default : Да
Forced : Нет
[ ]



Скачать Откройте.полиция!.2.Ripoux.Contre.Ripoux.(Клод.Зиди).[1990.комедия.криминал.BDRip].[1080].[MVO].torrent без регистрации
Золото ЗОЛОТАЯ РАЗДАЧА! СКАЧАННОЕ НЕ ЗАСЧИТЫВАЕТСЯ! Золото
Дата: Зарегистрирован   [ Тип: внутренний ] Как тут cкачать?
MAGNET ссылка
MAGNET ссылка


Скачать .torrent

11 KB

Статус: проверено DHT
Скачан: торрент - 167 раз, раздача полностью - 0 раз
Размер: 4,38 GB
Оценка:  5 (Голосов: 1)
Поблагодарили: 1
Поделиться ссылкой на эту раздачу с друзьями:
В контактеFacebookОдноклассникиTwitterLivejournalМой МирLiveinternet
 

 

deadmauVlad

[] 

я вам исправил вот так надо оформлять
 
Показать сообщения:    


Вы не можете начинать темы
Вы не можете отвечать на сообщения
Вы не можете редактировать свои сообщения
Вы не можете удалять свои сообщения
Вы не можете голосовать в опросах
Вы не можете прикреплять файлы к сообщениям
Вы можете скачивать файлы