Loading...
Error

Скачать Игры / Games (Кертис Харрингтон) [1967, триллер, DVDRip-AVC] [MVO] торрент без регистрации

 
Статистика раздачи
Размер:  1,54 GB   |    Скачан:  103 раза
Сидов:  1  [  0 KB/s  ]  
 
Автор Сообщение

Marsianka

[] 

Информация о фильме
Название: Игры
Оригинальное название: Games
Год выхода: 1967
Режиссер: Кертис Харрингтон / Curtis Harrington
В ролях: Симона Синьоре, Джеймс Каан, Кэтэрин Росс, Дон Страуд, Кент Смит, Эстель Уинвуд, Марджори Беннетт, Ян Вульф
Жанр: триллер
О фильме:
Дженнифер и Пол Монтгомери весьма эксцентричная пара. На протяжении трех лет своего супружества они стараются разнообразить свою семейную жизнь забавными безобидными играми. Но однажды в их жизни появляется очень странная продавщица косметики Лиза Шиндлер и рассказывает им совсем о других играх опасных и серьезных. Пол и Дженнифер решают сыграть "по-взрослому" и так увлекаются, что не замечают, как переступают черту дозволенного...



Страна: США
Студия: Universal Pictures
Продолжительность: 01:36:09.040
Перевод: Профессиональный (многоголосый, закадровый) Эфирный канал

Файл
Кодек: h.264
Качество: DVDRip-AVC
Видео: 704x432 (2.35:1) @ 1008x432 (анаморф), 25.000 fps, AVC, ~1967 Kbps, 0.259 bits/pixel
Английский, 48.0 KHz, AC3, 2 ch, 224 Kbps (двойное моно)
Русский, 48.0 KHz, AC3, 1 ch, 96.0 Kbps
Субтитры: нет
Исходник R2, синхр. звуковая дорожка с SATrip _Polinka_(Спасибо!) .
Общее
Уникальный идентификатор : 172352359502489052606547439801978085512 (0x81A9DB65588488E19E07486825086088)
Полное имя : D:FilmsIgry.1967.DVDRip-AVC.mkv
Формат : Matroska
Версия формата : Version 4 / Version 2
Размер файла : 1,54 Гбайт
Продолжительность : 1 ч. 36 м.
Общий поток : 2289 Кбит/сек
Дата кодирования : UTC 2014-02-15 07:15:21
Программа кодирования : mkvmerge v6.7.0 ('Back to the Ground') 64bit built on Jan 8 2014 15:10:52
Библиотека кодирования : libebml v1.3.0 + libmatroska v1.4.1

Видео
Идентификатор : 1
Формат : AVC
Формат/Информация : Advanced Video Codec
Профиль формата : High@L4.1
Параметр CABAC формата : Да
Параметр ReFrames формата : 16 кадров
Идентификатор кодека : V_MPEG4/ISO/AVC
Продолжительность : 1 ч. 36 м.
Битрейт : 1967 Кбит/сек
Ширина : 704 пикселя
Высота : 432 пикселя
Соотношение сторон : 2,35:1
Режим частоты кадров : Постоянный
Частота кадров : 25,000 кадров/сек
Цветовое пространство : YUV
Субдискретизация насыщенности : 4:2:0
Битовая глубина : 8 бит
Тип развёртки : Прогрессивная
Бит/(Пиксели*Кадры) : 0.259
Размер потока : 1,29 Гбайт (84%)
Библиотека кодирования : x264 core 138 r2358 9e941d1
Настройки программы : cabac=1 / ref=16 / deblock=1:0:0 / analyse=0x3:0x133 / me=umh / subme=10 / psy=1 / psy_rd=1.10:0.10 / mixed_ref=1 / me_range=32 / chroma_me=1 / trellis=2 / 8x8dct=1 / cqm=0 / deadzone=21,11 / fast_pskip=0 / chroma_qp_offset=-6 / threads=8 / lookahead_threads=1 / sliced_threads=0 / nr=0 / decimate=0 / interlaced=0 / bluray_compat=0 / constrained_intra=0 / bframes=9 / b_pyramid=2 / b_adapt=2 / b_bias=0 / direct=3 / weightb=1 / open_gop=0 / weightp=2 / keyint=250 / keyint_min=25 / scenecut=60 / intra_refresh=0 / rc_lookahead=60 / rc=2pass / mbtree=0 / bitrate=1967 / ratetol=1.0 / qcomp=0.60 / qpmin=0 / qpmax=69 / qpstep=4 / cplxblur=20.0 / qblur=0.5 / vbv_maxrate=50000 / vbv_bufsize=62500 / nal_hrd=none / ip_ratio=1.40 / pb_ratio=1.30 / aq=2:1.00
Default : Нет
Forced : Нет
Коэффициенты матрицы : BT.601

Аудио #1
Идентификатор : 2
Формат : AC-3
Формат/Информация : Audio Coding 3
Расширение режима : CM (complete main)
Параметр Endianness формата : Big
Идентификатор кодека : A_AC3
Продолжительность : 1 ч. 36 м.
Вид битрейта : Постоянный
Битрейт : 224 Кбит/сек
Каналы : 2 канала
Расположение каналов : Front: L R
Частота : 48,0 КГц
Битовая глубина : 16 бит
Метод сжатия : С потерями
Размер потока : 154 Мбайт (10%)
Язык : English
Default : Нет
Forced : Нет

Аудио #2
Идентификатор : 3
Формат : AC-3
Формат/Информация : Audio Coding 3
Расширение режима : CM (complete main)
Параметр Endianness формата : Big
Идентификатор кодека : A_AC3
Продолжительность : 1 ч. 36 м.
Вид битрейта : Постоянный
Битрейт : 96,0 Кбит/сек
Каналы : 1 канал
Расположение каналов : Front: C
Частота : 48,0 КГц
Битовая глубина : 16 бит
Метод сжатия : С потерями
Размер потока : 66,0 Мбайт (4%)
Язык : Russian
Default : Да
Forced : Нет

Меню
00:00:00.000 : en:Chapter 01
00:08:13.320 : en:Chapter 02
00:13:22.080 : en:Chapter 03
00:22:39.960 : en:Chapter 04
00:31:05.920 : en:Chapter 05
00:38:32.520 : en:Chapter 06
00:47:17.200 : en:Chapter 07
00:54:33.040 : en:Chapter 08
01:04:23.120 : en:Chapter 09
01:11:54.320 : en:Chapter 10
01:20:34.960 : en:Chapter 11
01:28:54.160 : en:Chapter 12
01:36:09.000 : en:Chapter 13
Релиз от: Temperest



Скачать Игры.Games.(Кертис.Харрингтон).[1967.триллер.DVDRip-AVC].[MVO].torrent без регистрации
Золото ЗОЛОТАЯ РАЗДАЧА! СКАЧАННОЕ НЕ ЗАСЧИТЫВАЕТСЯ! Золото
Дата: Зарегистрирован   [ Тип: внутренний ] Как тут cкачать?
MAGNET ссылка
MAGNET ссылка


Скачать .torrent

16 KB

Статус: проверено DHT
Скачан: торрент - 103 раз, раздача полностью - 6 раз
Размер: 1,54 GB
Оценка:  - (Голосов: 0)
Поблагодарили: 1
Поделиться ссылкой на эту раздачу с друзьями:
В контактеFacebookОдноклассникиTwitterLivejournalМой МирLiveinternet
 

 
Показать сообщения:    


Вы не можете начинать темы
Вы не можете отвечать на сообщения
Вы не можете редактировать свои сообщения
Вы не можете удалять свои сообщения
Вы не можете голосовать в опросах
Вы не можете прикреплять файлы к сообщениям
Вы можете скачивать файлы