Loading...
Error

Скачать Завтрак у Тиффани / Breakfast at Tiffany's (Блейк Эдвардс) [1961, драма, мелодрама, комедия, BDRip][1080p][MVO] торрент без регистрации

 
Статистика раздачи
Размер:  4,35 GB   |    Скачан:  140 раз
Сидов:  1  [  0 KB/s  ]  
 
Автор Сообщение

COLLAPSE

[] 


Завтрак у Тиффани / Breakfast at Tiffany's


Год выпуска: 1961
Выпущено: США, Jurow-Shepherd
Жанр: драма, мелодрама, комедия
Продолжительность: 01:55:05
Перевод: Профессиональный (многоголосый)

Режиссер: Блейк Эдвардс

В ролях: Одри Хепберн, Джордж Пеппард, Патриция Нил, Бадди Эбсен, Мартин Болсам, Хосе Луис де Вильялонга, Джон МакГайвер, Алан Рид, Дороти Уитни, Беверли Пауэрс

Описание: Столица сильных мира сего и уютное гнездышко очаровательной Холли Голайтли. Кто-то назовет ее девицей по вызову, кто-то — авантюристкой. Одни подумают, что она хитра как лисица. Другие решат, что глупа как пробка. Холли это безразлично. Она наслаждается жизнью, меняет наряды и ищет богатого жениха. Но однажды этажом выше появляется симпатичный молодой человек…







Качество: BDRip 1080p
Видео: AVC, 1920x1080 (16:9), 4866 kbps (0.098 b/px), 23.98 fps
Аудио: AC3, 449 kbps (CBR), 48.0 KHz (16 bits), 6 ch, Russian





Формат : Matroska
Версия формата : Version 2
Размер файла : 4,35 Гбайт
Продолжительность : 1 ч. 54 м.
Режим общего битрейта : Переменный
Общий поток : 5421 Кбит/сек
Название фильма : Завтрак.у.Тиффани.1961.1080p.P.BluRay.x264 (1)
Дата кодирования : UTC 2014-02-16 15:04:19
Программа кодирования : DVDFab
Библиотека кодирования : libebml v0.7.8 + libmatroska v0.8.1

Видео
Идентификатор : 1
Формат : AVC
Формат/Информация : Advanced Video Codec
Профиль формата : High@L4.0
Параметр CABAC формата : Да
Параметр ReFrames формата : 2 кадра
Идентификатор кодека : V_MPEG4/ISO/AVC
Продолжительность : 1 ч. 54 м.
Вид битрейта : Переменный
Битрейт : 4865 Кбит/сек
Максимальный битрейт : 7458 Кбит/сек
Ширина : 1920 пикселей
Высота : 1080 пикселей
Соотношение сторон : 16:9
Режим частоты кадров : Постоянный
Частота кадров : 23,976 кадра/сек
Цветовое пространство : YUV
Субдискретизация насыщенности : 4:2:0
Битовая глубина : 8 бит
Тип развёртки : Прогрессивная
Бит/(Пиксели*Кадры) : 0.098
Размер потока : 3,91 Гбайт (90%)
Default : Да
Forced : Нет

Аудио
Идентификатор : 2
Формат : AC-3
Формат/Информация : Audio Coding 3
Расширение режима : CM (complete main)
Параметр Endianness формата : Big
Идентификатор кодека : A_AC3
Продолжительность : 1 ч. 54 м.
Вид битрейта : Постоянный
Битрейт : 448 Кбит/сек
Каналы : 6 каналов
Расположение каналов : Front: L C R, Side: L R, LFE
Частота : 48,0 КГц
Битовая глубина : 16 бит
Метод сжатия : С потерями
Размер потока : 368 Мбайт (8%)
Язык : Russian
Default : Да
Forced : Нет



Скачать Завтрак.у.Тиффани.Breakfast.at.Tiffany's.(Блейк.Эдвардс).[1961.драма.мелодрама.комедия.BDRip][1080p][MVO].torrent без регистрации
Золото ЗОЛОТАЯ РАЗДАЧА! СКАЧАННОЕ НЕ ЗАСЧИТЫВАЕТСЯ! Золото
Дата: Зарегистрирован   [ Тип: внутренний ] Как тут cкачать?
MAGNET ссылка
MAGNET ссылка


Скачать .torrent

11 KB

Статус: проверено DHT
Скачан: торрент - 140 раз, раздача полностью - 0 раз
Размер: 4,35 GB
Оценка:  - (Голосов: 0)
Поблагодарили: 1
Поделиться ссылкой на эту раздачу с друзьями:
В контактеFacebookОдноклассникиTwitterLivejournalМой МирLiveinternet
 

 
Показать сообщения:    


Вы не можете начинать темы
Вы не можете отвечать на сообщения
Вы не можете редактировать свои сообщения
Вы не можете удалять свои сообщения
Вы не можете голосовать в опросах
Вы не можете прикреплять файлы к сообщениям
Вы можете скачивать файлы