Loading...
Error

Скачать Князь тьмы / Prince of Darkness (Джон Карпентер) [1987, Ужасы , BDRip ] [1080p] [MVO] торрент без регистрации

 
Статистика раздачи
Размер:  4,27 GB   |    Скачан:  2364 раза

Полного источника не было: 24 минуты

 
Автор Сообщение

COLLAPSE

[] 


Князь тьмы / Prince of Darkness


Год выпуска: 1987
Выпущено: США, Alive Films, Larry Franco Productions
Жанр: Ужасы
Продолжительность: 01:41:38
Перевод: Профессиональный (многоголосый)

Режиссер: Джон Карпентер

В ролях: Дональд Плезенс, Джеймисон Паркер, Виктор Вонг, Лиза Блаунт, Деннис Дун, Сьюзэн Блэнчард, Энн Мари Ховард, Энн Йен, Кен Райт, Дирк Блокер

Описание: Группа учёных-исследователей во время изучения заброшенной церкви находит необычный сосуд. С помощью рентгеновских лучей им удается определить, что сосуду около 7 миллионов лет и, что самое интересное, его можно открыть только изнутри. В нём находится некая непонятная субстанция: жидкий алмаз, созданный какой-то таинственной силой. В древней рукописи говорится, что в этом алмазе покоится сам Сатана или его дух. В результате экспериментов дьявольская сила, высвободившись из сосуда и рассеявшись в пространстве, начинает вселяться в исследователей, превращая их в рабов Сатаны.









Качество: BDRip 1080p
Видео: AVC, 1920x816 (2.35:1), 5557 kbps (0.148 b/px), 23.98 fps
Аудио: AC3, 449 kbps (CBR), 48.0 KHz (16 bits), 6 ch, Russian




Формат : Matroska
Версия формата : Version 2
Размер файла : 4,27 Гбайт
Продолжительность : 1 ч. 39 м.
Режим общего битрейта : Переменный
Общий поток : 6126 Кбит/сек
Название фильма : Knjaz.tjmy.1987.x264.BDRip.1080p MVO
Дата кодирования : UTC 2014-02-16 20:15:52
Программа кодирования : DVDFab
Библиотека кодирования : libebml v0.7.8 + libmatroska v0.8.1

Видео
Идентификатор : 1
Формат : AVC
Формат/Информация : Advanced Video Codec
Профиль формата : High@L4.0
Параметр CABAC формата : Да
Параметр ReFrames формата : 2 кадра
Идентификатор кодека : V_MPEG4/ISO/AVC
Продолжительность : 1 ч. 39 м.
Вид битрейта : Переменный
Битрейт : 5556 Кбит/сек
Максимальный битрейт : 8509 Кбит/сек
Ширина : 1920 пикселей
Высота : 816 пикселей
Соотношение сторон : 2,35:1
Режим частоты кадров : Постоянный
Частота кадров : 23,976 кадра/сек
Цветовое пространство : YUV
Субдискретизация насыщенности : 4:2:0
Битовая глубина : 8 бит
Тип развёртки : Прогрессивная
Бит/(Пиксели*Кадры) : 0.148
Размер потока : 3,87 Гбайт (91%)
Default : Да
Forced : Нет

Аудио
Идентификатор : 2
Формат : AC-3
Формат/Информация : Audio Coding 3
Расширение режима : CM (complete main)
Параметр Endianness формата : Big
Идентификатор кодека : A_AC3
Продолжительность : 1 ч. 39 м.
Вид битрейта : Постоянный
Битрейт : 448 Кбит/сек
Каналы : 6 каналов
Расположение каналов : Front: L C R, Side: L R, LFE
Частота : 48,0 КГц
Битовая глубина : 16 бит
Метод сжатия : С потерями
Размер потока : 319 Мбайт (7%)
Язык : Russian
Default : Да
Forced : Нет



Скачать Князь.тьмы.Prince.of.Darkness.(Джон.Карпентер).[1987.Ужасы.BDRip.].[1080p].[MVO].torrent без регистрации
Золото ЗОЛОТАЯ РАЗДАЧА! СКАЧАННОЕ НЕ ЗАСЧИТЫВАЕТСЯ! Золото
Дата: Зарегистрирован   [ Тип: внутренний ] Как тут cкачать?
MAGNET ссылка
MAGNET ссылка


Скачать .torrent

11 KB

Статус: проверено DHT
Скачан: торрент - 2364 раз, раздача полностью - 1 раз
Размер: 4,27 GB
Оценка:  5 (Голосов: 1)
Поблагодарили: 5
Поделиться ссылкой на эту раздачу с друзьями:
В контактеFacebookОдноклассникиTwitterLivejournalМой МирLiveinternet
 

 

eddiefender

[] 

Спасибо за сделанный рип.Я его смотрел очень давно в одноголоске ещё на видеокассете,теперь заценю в качестве!
 
Показать сообщения:    


Вы не можете начинать темы
Вы не можете отвечать на сообщения
Вы не можете редактировать свои сообщения
Вы не можете удалять свои сообщения
Вы не можете голосовать в опросах
Вы не можете прикреплять файлы к сообщениям
Вы можете скачивать файлы