Loading...
Error

Скачать Собственность дьявола / The Devil's Own (Алан Дж. Пакула) [1997, боевик, триллер, драма BDrip] 1080р [DUB] торрент без регистрации

 
Статистика раздачи
Размер:  4,37 GB   |    Скачан:  121 раз
Сидов:  1  [  0 KB/s  ]  
 
Автор Сообщение

COLLAPSE

[] 


Собственность дьявола / The Devil's Own


Год выпуска: 1997
Выпущено: США
Жанр: боевик, триллер, драма
Продолжительность: 01:51:15
Перевод: Профессиональный (полное дублирование)
Субтитры: нет

Режиссер: Алан Дж. Пакула

В ролях: Харрисон Форд, Брэд Питт, Маргарет Колин, Рубен Блейдс, Трит Уильямс, Джордж Хирн, Митч Райан, Наташа МакЭлхоун, Пол Ронан, Саймон Джонс, Джулия Стайлз, Эшли Кэрин, Келли Сингер, Дэвид О`Хара, Дэвид Уилмот, Энтони Брофи, Шэйн Данн, Мартин Данн, Гэбриэлль Рейди, Саманта Сонрой, Бакстер Харрис

Описание: Северная Ирландия. 1972 год. Человек в черной маске врывается в дом и убивает отца на глазах семьи, сидящей за столом. Крупным планом мы видим синие глаза на лице восьмилетнего сына. Затем действие перемещается в наше время.
Самый разыскиваемый боевик ИРА, красивый донельзя молодой человек все с теми же синими глазами, после жестокого боя с правительственными войсками скрывается в Америке. Все его товарищи погибли. Он и еще один боевик ИРА, друг Шон, должны купить ракеты "стингеры" для борьбы с вертолетами.
Он живет в семье ничего не подозревающего американского полицейского ирландского происхождения, и зритель узнает о том, какой хороший, добрый и честный этот полицейский, какая хорошая у него семья, как протекает его нелегкая служба. Питт тем временем находит продавца, но сделка срывается, так как из Ирландии приходит приказ повременить.
Это не устраивает продавца, так как, по его словам, он уже заплатил за ракеты собственные деньги…









Качество: BDRip 1080p
Видео: AVC, 1920x800 (2.40:1), 5070 kbps (0.138 b/px), 23.98 fps
Аудио: AC3, 449 kbps (CBR), 48.0 KHz (16 bits), 6 ch, Russian




Формат : Matroska
Версия формата : Version 2
Размер файла : 4,37 Гбайт
Продолжительность : 1 ч. 51 м.
Режим общего битрейта : Переменный
Общий поток : 5629 Кбит/сек
Название фильма : Собственность дьявола.1997.BDRip.1080p.Rus.Eng (1)
Дата кодирования : UTC 2014-02-17 15:11:04
Программа кодирования : DVDFab
Библиотека кодирования : libebml v0.7.8 + libmatroska v0.8.1

Видео
Идентификатор : 1
Формат : AVC
Формат/Информация : Advanced Video Codec
Профиль формата : High@L4.0
Параметр CABAC формата : Да
Параметр ReFrames формата : 2 кадра
Идентификатор кодека : V_MPEG4/ISO/AVC
Продолжительность : 1 ч. 51 м.
Вид битрейта : Переменный
Битрейт : 5069 Кбит/сек
Максимальный битрейт : 7767 Кбит/сек
Ширина : 1920 пикселей
Высота : 800 пикселей
Соотношение сторон : 2,40:1
Режим частоты кадров : Постоянный
Частота кадров : 23,976 кадра/сек
Цветовое пространство : YUV
Субдискретизация насыщенности : 4:2:0
Битовая глубина : 8 бит
Тип развёртки : Прогрессивная
Бит/(Пиксели*Кадры) : 0.138
Размер потока : 3,94 Гбайт (90%)
Default : Да
Forced : Нет

Аудио
Идентификатор : 2
Формат : AC-3
Формат/Информация : Audio Coding 3
Расширение режима : CM (complete main)
Параметр Endianness формата : Big
Идентификатор кодека : A_AC3
Продолжительность : 1 ч. 51 м.
Вид битрейта : Постоянный
Битрейт : 448 Кбит/сек
Каналы : 6 каналов
Расположение каналов : Front: L C R, Side: L R, LFE
Частота : 48,0 КГц
Битовая глубина : 16 бит
Метод сжатия : С потерями
Размер потока : 357 Мбайт (8%)
Язык : Russian
Default : Да
Forced : Нет



Скачать Собственность.дьявола.The.Devil's.Own.(Алан.Дж.Пакула).[1997.боевик.триллер.драма.BDrip].1080р.[DUB].torrent без регистрации
Золото ЗОЛОТАЯ РАЗДАЧА! СКАЧАННОЕ НЕ ЗАСЧИТЫВАЕТСЯ! Золото
Дата: Зарегистрирован   [ Тип: внутренний ] Как тут cкачать?
MAGNET ссылка
MAGNET ссылка


Скачать .torrent

11 KB

Статус: проверено DHT
Скачан: торрент - 121 раз, раздача полностью - 0 раз
Размер: 4,37 GB
Оценка:  - (Голосов: 0)
Поблагодарили: 0
Поделиться ссылкой на эту раздачу с друзьями:
В контактеFacebookОдноклассникиTwitterLivejournalМой МирLiveinternet
 

 
Показать сообщения:    


Вы не можете начинать темы
Вы не можете отвечать на сообщения
Вы не можете редактировать свои сообщения
Вы не можете удалять свои сообщения
Вы не можете голосовать в опросах
Вы не можете прикреплять файлы к сообщениям
Вы можете скачивать файлы