Loading...
Error

Скачать Дом 1000 трупов 2: Изгнанные дьяволом / Devil's Rejects (Роб Зомби / Rob Zombie) [2005, Боевик, Ужасы BDrip] 1080р [DUB] торрент без регистрации

 
Статистика раздачи
Размер:  4,38 GB   |    Скачан:  165 раз
Сидов:  1  [  0 KB/s  ]   Личеров:  1  [  0 KB/s  ]  
 
Автор Сообщение

COLLAPSE

[] 


Дом 1000 трупов 2: Изгнанные дьяволом / Devil's Rejects


Год выпуска: 2005
Выпущено: США
Жанр: Боевик, Ужасы
Продолжительность: 01:44:28
Перевод: Профессиональный (полное дублирование)

Режиссер: Роб Зомби / Rob Zombie

В ролях: Сид Хейг, Билл Моусли, Шери Мун, Уильям Форсайт, Кен Фори, Мэттью Макгрори, Лесли Истербрук, Джеффри Льюис, Присцилла Барнс и другие.

Описание: Прошло несколько месяцев с тех пор, как полиция Техаса взяла штурмом дом чудовищной семейки Файрфлай. Во время штурма погиб брат шерифа и теперь шериф жаждет мести за убийство брата. Он считает себя вправе лично вершить правосудие над семьей Файерфлай. Простая смерть кажется ему слишком легким наказанием, и шериф призывает на помощь слуг Дьявола, чтобы совершить одно из самых жутких и ужасных злодеяний за всю историю человечества...








Качество: BDRip 1080p
Видео: AVC, 1920x1080 (16:9), 5090 kbps (0.102 b/px), 23.98 fps
Аудио: AC3, 449 kbps (CBR), 48.0 KHz (16 bits), 6 ch, Russian




ормат : Matroska
Версия формата : Version 2
Размер файла : 4,38 Гбайт
Продолжительность : 1 ч. 50 м.
Режим общего битрейта : Переменный
Общий поток : 5650 Кбит/сек
Название фильма : the.devils.rejects.2005.1080p.bluray.x264-hv (1)
Дата кодирования : UTC 2014-02-17 16:02:53
Программа кодирования : DVDFab
Библиотека кодирования : libebml v0.7.8 + libmatroska v0.8.1

Видео
Идентификатор : 1
Формат : AVC
Формат/Информация : Advanced Video Codec
Профиль формата : High@L4.0
Параметр CABAC формата : Да
Параметр ReFrames формата : 2 кадра
Идентификатор кодека : V_MPEG4/ISO/AVC
Продолжительность : 1 ч. 50 м.
Вид битрейта : Переменный
Битрейт : 5090 Кбит/сек
Максимальный битрейт : 7795 Кбит/сек
Ширина : 1920 пикселей
Высота : 1080 пикселей
Соотношение сторон : 16:9
Режим частоты кадров : Постоянный
Частота кадров : 23,976 кадра/сек
Цветовое пространство : YUV
Субдискретизация насыщенности : 4:2:0
Битовая глубина : 8 бит
Тип развёртки : Прогрессивная
Бит/(Пиксели*Кадры) : 0.102
Размер потока : 3,94 Гбайт (90%)
Default : Да
Forced : Нет

Аудио
Идентификатор : 2
Формат : AC-3
Формат/Информация : Audio Coding 3
Расширение режима : CM (complete main)
Параметр Endianness формата : Big
Идентификатор кодека : A_AC3
Продолжительность : 1 ч. 50 м.
Вид битрейта : Постоянный
Битрейт : 448 Кбит/сек
Каналы : 6 каналов
Расположение каналов : Front: L C R, Side: L R, LFE
Частота : 48,0 КГц
Битовая глубина : 16 бит
Метод сжатия : С потерями
Размер потока : 355 Мбайт (8%)
Язык : Russian
Default : Да
Forced : Нет



Скачать Дом.1000.трупов.2.Изгнанные.дьяволом.Devil's.Rejects.(Роб.Зомби.Rob.Zombie).[2005.Боевик.Ужасы.BDrip].1080р.[DUB].torrent без регистрации
Золото ЗОЛОТАЯ РАЗДАЧА! СКАЧАННОЕ НЕ ЗАСЧИТЫВАЕТСЯ! Золото
Дата: Зарегистрирован   [ Тип: внутренний ] Как тут cкачать?
MAGNET ссылка
MAGNET ссылка


Скачать .torrent

11 KB

Статус: проверено DHT
Скачан: торрент - 165 раз, раздача полностью - 0 раз
Размер: 4,38 GB
Оценка:  5 (Голосов: 1)
Поблагодарили: 2
Поделиться ссылкой на эту раздачу с друзьями:
В контактеFacebookОдноклассникиTwitterLivejournalМой МирLiveinternet
 

 
Показать сообщения:    


Вы не можете начинать темы
Вы не можете отвечать на сообщения
Вы не можете редактировать свои сообщения
Вы не можете удалять свои сообщения
Вы не можете голосовать в опросах
Вы не можете прикреплять файлы к сообщениям
Вы можете скачивать файлы