Loading...
Error

Скачать Домино / Domino (Тони Скотт / Tony Scott) [2005, боевик, триллер, драма, криминал BDrip] 1080р [DUB] торрент без регистрации

 
Статистика раздачи
Размер:  4,38 GB   |    Скачан:  163 раза
Сидов:  1  [  0 KB/s  ]  
 
Автор Сообщение

COLLAPSE

[] 


Домино / Domino


Год выпуска: 2005
Выпущено: США, Франция, Великобритания
Жанр: боевик, триллер, драма, криминал
Продолжительность: 2:07:25
Перевод: Профессиональный (полное дублирование)

Режиссер: Тони Скотт / Tony Scott

В ролях: Кира Найтли, Микки Рурк, Эдгар Рамирез, Риз Аббаси, Делрой Линдо, Моник, Йен Зиринг, Брайан Остин Грин, Джо Нунез, Мэйси Грэй, Люси Лью, Кристофер Уокен, Мена Сувари

Описание: Дочь известного в 60-е годы актера Лоуренса Харви, Домино, устав от роскоши и скучной жизни, посещает занятия для «охотников за головами». Там она знакомится с двумя головорезами — Тэдом и Чоко, который без памяти влюбляется в Домино. Объединившись с ними, она становится самой известной женщиной, занимающейся тем, что разыскивает преступников за награду.









Качество: BD Rip 1080р
Видео: AVC, 1920x800 (2.40:1), 4368 kbps (0.119 b/px), 23.98 fps
Аудио: AC3, 449 kbps (CBR), 48.0 KHz (16 bits), 6 ch, Russian


Формат : Matroska
Версия формата : Version 2
Размер файла : 4,38 Гбайт
Продолжительность : 2 ч. 7 м.
Режим общего битрейта : Переменный
Общий поток : 4913 Кбит/сек
Название фильма : Domino.BDRip.1080p. (1)
Дата кодирования : UTC 2014-02-17 12:54:48
Программа кодирования : DVDFab
Библиотека кодирования : libebml v0.7.8 + libmatroska v0.8.1

Видео
Идентификатор : 1
Формат : AVC
Формат/Информация : Advanced Video Codec
Профиль формата : High@L4.0
Параметр CABAC формата : Да
Параметр ReFrames формата : 2 кадра
Идентификатор кодека : V_MPEG4/ISO/AVC
Продолжительность : 2 ч. 7 м.
Вид битрейта : Переменный
Битрейт : 4367 Кбит/сек
Максимальный битрейт : 6688 Кбит/сек
Ширина : 1920 пикселей
Высота : 800 пикселей
Соотношение сторон : 2,40:1
Режим частоты кадров : Постоянный
Частота кадров : 23,976 кадра/сек
Цветовое пространство : YUV
Субдискретизация насыщенности : 4:2:0
Битовая глубина : 8 бит
Тип развёртки : Прогрессивная
Бит/(Пиксели*Кадры) : 0.119
Размер потока : 3,89 Гбайт (89%)
Default : Да
Forced : Нет

Аудио
Идентификатор : 2
Формат : AC-3
Формат/Информация : Audio Coding 3
Расширение режима : CM (complete main)
Параметр Endianness формата : Big
Идентификатор кодека : A_AC3
Продолжительность : 2 ч. 7 м.
Вид битрейта : Постоянный
Битрейт : 448 Кбит/сек
Каналы : 6 каналов
Расположение каналов : Front: L C R, Side: L R, LFE
Частота : 48,0 КГц
Битовая глубина : 16 бит
Метод сжатия : С потерями
Размер потока : 409 Мбайт (9%)
Язык : Russian
Default : Да
Forced : Нет





Скачать Домино.Domino.(Тони.Скотт.Tony.Scott).[2005.боевик.триллер.драма.криминал.BDrip].1080р.[DUB].torrent без регистрации
Золото ЗОЛОТАЯ РАЗДАЧА! СКАЧАННОЕ НЕ ЗАСЧИТЫВАЕТСЯ! Золото
Дата: Зарегистрирован   [ Тип: внутренний ] Как тут cкачать?
MAGNET ссылка
MAGNET ссылка


Скачать .torrent

11 KB

Статус: проверено DHT
Скачан: торрент - 163 раз, раздача полностью - 35 раз
Размер: 4,38 GB
Оценка:  - (Голосов: 0)
Поблагодарили: 3
Поделиться ссылкой на эту раздачу с друзьями:
В контактеFacebookОдноклассникиTwitterLivejournalМой МирLiveinternet
 

 
Показать сообщения:    


Вы не можете начинать темы
Вы не можете отвечать на сообщения
Вы не можете редактировать свои сообщения
Вы не можете удалять свои сообщения
Вы не можете голосовать в опросах
Вы не можете прикреплять файлы к сообщениям
Вы можете скачивать файлы