Loading...
Error

Скачать Битва за огонь / Борьба за огонь / La guerre du feu / Quest for Fire (Жан-Жак Анно) [1981, приключения, история, BDRip-AVC] [Sub] торрент без регистрации

 
Статистика раздачи
Размер:  2,77 GB   |    Скачан:  115 раз
Сидов:  1  [  0 KB/s  ]  
 
Автор Сообщение

Marsianka

[] 

Информация о фильме
Название: Битва за огонь / Борьба за огонь
Оригинальное название: La guerre du feu / Quest for Fire
Год выхода: 1981
Жанр: приключения, история
Режиссер: Жан-Жак Анно
В ролях: Эверетт МакГилл, Рон Перлман, Николас Кади, Рей Дон Чон, Гэри Шварц, Насир Эль Кади, Франк-Оливье Бонне, Жан-Мишель Киндт, Курт Шигль, Брайан Гилл, Терри Фитт, Биби Каспари, Питер Эллиотт, Мишель Ледюк, Роберт Лавуа, Мэтт Бирман, Кристиан Бенард, Джой Баушел, Мэри Лу Фой, Сильви Гибо

О фильме:80 000 лет до нашей эры. На фоне величественной первозданной природы разворачивается одна из первых в истории человечеств драм: во время нападения врагов племя уламров утрачивает величайшую ценность - огонь. Обрести его можно только отобрав у другого племени. Трое охотников покидают племя и выходят в полный опасностей поход на поиски огня... На данный момент это единственный серьёзный фильм о первобытных людях. Все предельно натуралистично и жестко. Фильм создан с привлечением обширного этнографического материала, использовано оружие и приёмы выживания современных нам диких племён. Специально для фильма создан особый язык, жесты и даже воспроизведён смех первобытного человека.



Страна: Франция, США, Канада
Студия: Belstar Productions, Cin™ Trail, Famous Players Limited, Gruskoff Film Organization, International Cinema Corporation (ICC)
Продолжительность: 01:40:34
Перевод: Не требуется

Файл
Кодек: MPEG-4 AVC
Качество: BDRip-AVC
Видео: 3500 Кбит/с, 1024х436, 24.000 кадр/с
Звук:
Аудио: французский (AC3, 6 ch, 448 Кбит/с)
Субтитры: Русские (на надписи)

Семпл
Общее
Уникальный идентификатор : 218032654550913434703440094865382597494 (0xA4078FD3C9D340879DDED863FE766376)
Полное имя : D:2Films DРелизыBitva.za.ogon.1981.x264.BDRip.AVC.MediaClub.mkv
Формат : Matroska
Версия формата : Version 2
Размер файла : 2,77 Гбайт
Продолжительность : 1 ч. 40 м.
Общий поток : 3948 Кбит/сек
Название фильма : -= MediaClub =- rip by Lefevr
Дата кодирования : UTC 2013-12-09 15:14:22
Программа кодирования : mkvmerge v5.4.0 ('Piper') built on Mar 10 2012 13:34:39
Библиотека кодирования : libebml v1.2.3 + libmatroska v1.3.0

Видео
Идентификатор : 1
Формат : AVC
Формат/Информация : Advanced Video Codec
Профиль формата : High@L4.1
Параметр CABAC формата : Да
Параметр ReFrames формата : 9 кадров
Идентификатор кодека : V_MPEG4/ISO/AVC
Продолжительность : 1 ч. 40 м.
Битрейт : 3500 Кбит/сек
Ширина : 1024 пикселя
Высота : 436 пикселей
Соотношение сторон : 2,35:1
Режим частоты кадров : Постоянный
Частота кадров : 24,000 кадра/сек
Цветовое пространство : YUV
Субдискретизация насыщенности : 4:2:0
Битовая глубина : 8 бит
Тип развёртки : Прогрессивная
Бит/(Пиксели*Кадры) : 0.327
Размер потока : 2,40 Гбайт (87%)
Заголовок : Bitva.za.ogon.1981.x264.BDRip.AVC.MediaClub
Библиотека кодирования : x264 core 130 r2273 b3065e6
Настройки программы : cabac=1 / ref=9 / deblock=1:-3:-3 / analyse=0x3:0x133 / me=umh / subme=11 / psy=1 / psy_rd=1.10:0.20 / mixed_ref=1 / me_range=32 / chroma_me=1 / trellis=2 / 8x8dct=1 / cqm=0 / deadzone=21,11 / fast_pskip=0 / chroma_qp_offset=-3 / threads=6 / lookahead_threads=1 / sliced_threads=0 / nr=0 / decimate=0 / interlaced=0 / bluray_compat=0 / constrained_intra=0 / bframes=8 / b_pyramid=2 / b_adapt=2 / b_bias=0 / direct=3 / weightb=1 / open_gop=0 / weightp=2 / keyint=240 / keyint_min=23 / scenecut=40 / intra_refresh=0 / rc=2pass / mbtree=0 / bitrate=3500 / ratetol=1.0 / qcomp=0.60 / qpmin=0 / qpmax=69 / qpstep=4 / cplxblur=20.0 / qblur=0.5 / ip_ratio=1.40 / pb_ratio=1.30 / aq=1:1.00
Язык : English
Default : Да
Forced : Нет

Аудио
Идентификатор : 2
Формат : AC-3
Формат/Информация : Audio Coding 3
Расширение режима : CM (complete main)
Параметр Endianness формата : Big
Идентификатор кодека : A_AC3
Продолжительность : 1 ч. 40 м.
Вид битрейта : Постоянный
Битрейт : 448 Кбит/сек
Каналы : 6 каналов
Расположение каналов : Front: L C R, Side: L R, LFE
Частота : 48,0 КГц
Битовая глубина : 16 бит
Метод сжатия : С потерями
Размер потока : 322 Мбайт (11%)
Заголовок : TRACK_01_ORIGINAL_FRE
Язык : French
Default : Да
Forced : Нет

Текст
Идентификатор : 3
Формат : UTF-8
Идентификатор кодека : S_TEXT/UTF8
Идентификатор кодека/Информация : UTF-8 Plain Text
Заголовок : TEXT_01_SUB_RUS
Язык : Russian
Default : Нет
Forced : Нет

Меню
00:00:00.000 : en:Chapters Files (.xml)
00:09:25.665 : en:Chapter 02
00:14:56.666 : en:Chapter 03
00:23:17.833 : en:Chapter 04
00:31:17.875 : en:Chapter 05
00:38:48.458 : en:Chapter 06
00:45:19.041 : en:Chapter 07
00:54:28.333 : en:Chapter 08
01:02:59.416 : en:Chapter 09
01:11:17.207 : en:Chapter 10
01:20:13.832 : en:Chapter 11
01:29:32.041 : en:Chapter 12
01:40:33.541 : en:Chapter 13
x264 [info]: frame I:982 Avg QP:17.05 size: 88631
x264 [info]: frame P:35980 Avg QP:19.26 size: 33951
x264 [info]: frame B:107849 Avg QP:20.69 size: 12334
Релиз от: | Автор рипа:



Скачать Битва.за.огонь.Борьба.за.огонь.La.guerre.du.feu.Quest.for.Fire.(Жан-Жак.Анно).[1981.приключения.история.BDRip-AVC].[Sub].torrent без регистрации
Золото ЗОЛОТАЯ РАЗДАЧА! СКАЧАННОЕ НЕ ЗАСЧИТЫВАЕТСЯ! Золото
Дата: Зарегистрирован   [ Тип: внутренний ] Как тут cкачать?
MAGNET ссылка
MAGNET ссылка


Скачать .torrent

14 KB

Статус: проверено DHT
Скачан: торрент - 115 раз, раздача полностью - 17 раз
Размер: 2,77 GB
Оценка:  - (Голосов: 0)
Поблагодарили: 2
Поделиться ссылкой на эту раздачу с друзьями:
В контактеFacebookОдноклассникиTwitterLivejournalМой МирLiveinternet
 

 
Показать сообщения:    


Вы не можете начинать темы
Вы не можете отвечать на сообщения
Вы не можете редактировать свои сообщения
Вы не можете удалять свои сообщения
Вы не можете голосовать в опросах
Вы не можете прикреплять файлы к сообщениям
Вы можете скачивать файлы