Loading...
Error

Скачать Последнее соблазнение / The Last Seduction (Джон Дал) [1994, триллер, драма, криминал, DVDRip-AVC] [MVO] торрент без регистрации

 
Статистика раздачи
Размер:  2,16 GB   |    Скачан:  137 раз
Сидов:  1  [  0 KB/s  ]  
 
Автор Сообщение

Marsianka

[] 

Информация о фильме
Название: Последнее соблазнение
Оригинальное название: The Last Seduction
Год выхода: 1994
Жанр: триллер, драма, криминал
Режиссер: Джон Дал / John Dahl
В ролях: Линда Фиорентино, Билл Пуллман, Зак Файфер, Питер Берг, Брайан Варади, Дин Норрис, Донна Уилсон, Мик Скриба, Дж.Т. Уолш

О фильме:
Бриджет хочет иметь все. И сейчас. Цена значения не имеет. Она сбегает с миллионом долларов, принадлежащих кредиторам ее мужа, и прячется в маленьком городке под Нью-Йорком. Встретив там Майка, она склоняет его к страстному роману. Майк еще никогда не встречал женщину, подобную Бриджет. Она умна, шикарна и обворожительна...



Страна: США
Студия: Incorporated Television Company (ITC)
Продолжительность: 01:45:30.280
Перевод: Профессиональный (многоголосый, закадровый) R5 "Настроение Видео"

Файл
Кодек: h.264
Качество: DVDRip-AVC
Видео: 720x576 (16:9) @ 1024x576 (анаморф), 25.000 fps, AVC, ~2348 Kbps, 0.226 bits/pixel
Английский, 48.0 KHz, AC3, 2 ch, 384 Kbps
Русский, 48.0 KHz, AC3, 2 ch, 192 Kbps
Субтитры: нет
Общее
Уникальный идентификатор : 225690183833202383392309122721579621059 (0xA9CA592B7D91C5619FF031C250415AC3)
Полное имя : D:FilmsPoslednee_soblaznenie.1994.DVDRip-AVC.mkv
Формат : Matroska
Версия формата : Version 4 / Version 2
Размер файла : 2,16 Гбайт
Продолжительность : 1 ч. 45 м.
Общий поток : 2925 Кбит/сек
Дата кодирования : UTC 2014-02-16 06:43:17
Программа кодирования : mkvmerge v6.7.0 ('Back to the Ground') 64bit built on Jan 8 2014 15:10:52
Библиотека кодирования : libebml v1.3.0 + libmatroska v1.4.1

Видео
Идентификатор : 1
Формат : AVC
Формат/Информация : Advanced Video Codec
Профиль формата : High@L4.1
Параметр CABAC формата : Да
Параметр ReFrames формата : 16 кадров
Идентификатор кодека : V_MPEG4/ISO/AVC
Продолжительность : 1 ч. 45 м.
Битрейт : 2348 Кбит/сек
Ширина : 720 пикселей
Высота : 576 пикселей
Соотношение сторон : 16:9
Режим частоты кадров : Постоянный
Частота кадров : 25,000 кадров/сек
Стандарт вещания : PAL
Цветовое пространство : YUV
Субдискретизация насыщенности : 4:2:0
Битовая глубина : 8 бит
Тип развёртки : Прогрессивная
Бит/(Пиксели*Кадры) : 0.226
Размер потока : 1,69 Гбайт (78%)
Библиотека кодирования : x264 core 138 r2358 9e941d1
Настройки программы : cabac=1 / ref=16 / deblock=1:0:0 / analyse=0x3:0x133 / me=umh / subme=10 / psy=1 / psy_rd=1.10:0.10 / mixed_ref=1 / me_range=32 / chroma_me=1 / trellis=2 / 8x8dct=1 / cqm=0 / deadzone=21,11 / fast_pskip=0 / chroma_qp_offset=-6 / threads=8 / lookahead_threads=2 / sliced_threads=0 / nr=0 / decimate=0 / interlaced=0 / bluray_compat=0 / constrained_intra=0 / bframes=10 / b_pyramid=2 / b_adapt=2 / b_bias=0 / direct=3 / weightb=1 / open_gop=0 / weightp=2 / keyint=250 / keyint_min=25 / scenecut=60 / intra_refresh=0 / rc_lookahead=60 / rc=2pass / mbtree=0 / bitrate=2348 / ratetol=1.0 / qcomp=0.60 / qpmin=0 / qpmax=69 / qpstep=4 / cplxblur=20.0 / qblur=0.5 / vbv_maxrate=50000 / vbv_bufsize=62500 / nal_hrd=none / ip_ratio=1.40 / pb_ratio=1.30 / aq=2:1.00
Default : Нет
Forced : Нет
Коэффициенты матрицы : BT.601

Аудио #1
Идентификатор : 2
Формат : AC-3
Формат/Информация : Audio Coding 3
Расширение режима : CM (complete main)
Параметр Endianness формата : Big
Идентификатор кодека : A_AC3
Продолжительность : 1 ч. 45 м.
Вид битрейта : Постоянный
Битрейт : 384 Кбит/сек
Каналы : 2 канала
Расположение каналов : Front: L R
Частота : 48,0 КГц
Битовая глубина : 16 бит
Метод сжатия : С потерями
Размер потока : 290 Мбайт (13%)
Язык : English
Default : Нет
Forced : Нет

Аудио #2
Идентификатор : 3
Формат : AC-3
Формат/Информация : Audio Coding 3
Расширение режима : CM (complete main)
Параметр Endianness формата : Big
Идентификатор кодека : A_AC3
Продолжительность : 1 ч. 45 м.
Вид битрейта : Постоянный
Битрейт : 192 Кбит/сек
Каналы : 2 канала
Расположение каналов : Front: L R
Частота : 48,0 КГц
Битовая глубина : 16 бит
Метод сжатия : С потерями
Размер потока : 145 Мбайт (7%)
Язык : Russian
Default : Да
Forced : Нет

Меню
00:00:00.000 : en:Chapter 01
00:10:05.800 : en:Chapter 02
00:21:26.920 : en:Chapter 03
00:31:46.160 : en:Chapter 04
00:40:54.840 : en:Chapter 05
00:52:24.200 : en:Chapter 06
01:03:20.720 : en:Chapter 07
01:11:29.280 : en:Chapter 08
01:20:45.960 : en:Chapter 09
01:34:19.320 : en:Chapter 10
01:45:29.480 : en:Chapter 11
Исходник R5 "Настроение Видео". Был сделан downmix в стерео из 5.1 русской звуковой дорожки, поскольку 5.1 был раздут из 2.0.
Релиз от: Temperest



Скачать Последнее.соблазнение.The.Last.Seduction.(Джон.Дал).[1994.триллер.драма.криминал.DVDRip-AVC].[MVO].torrent без регистрации
Золото ЗОЛОТАЯ РАЗДАЧА! СКАЧАННОЕ НЕ ЗАСЧИТЫВАЕТСЯ! Золото
Дата: Зарегистрирован   [ Тип: внутренний ] Как тут cкачать?
MAGNET ссылка
MAGNET ссылка


Скачать .torrent

11 KB

Статус: проверено DHT
Скачан: торрент - 137 раз, раздача полностью - 1 раз
Размер: 2,16 GB
Оценка:  - (Голосов: 0)
Поблагодарили: 2
Поделиться ссылкой на эту раздачу с друзьями:
В контактеFacebookОдноклассникиTwitterLivejournalМой МирLiveinternet
 

 
Показать сообщения:    


Вы не можете начинать темы
Вы не можете отвечать на сообщения
Вы не можете редактировать свои сообщения
Вы не можете удалять свои сообщения
Вы не можете голосовать в опросах
Вы не можете прикреплять файлы к сообщениям
Вы можете скачивать файлы