Loading...
Error

Скачать Под Колпаком / The Boy in the Plastic Bubble (Рэндал Клайзер) [1976, драма, DVDRip-AVC] [DVO]+[Sub] торрент без регистрации

 
Статистика раздачи
Размер:  1,75 GB   |    Скачан:  130 раз
Сидов:  1  [  0 KB/s  ]  
 
Автор Сообщение

Marsianka

[] 

Информация о фильме
Название: Под Колпаком
Оригинальное название: The Boy in the Plastic Bubble
Год выхода: 1976
Жанр: драма
Режиссер: Рэндал Клайзер / Randal Kleiser
В ролях: Джон Траволта, Глайннис О`Коннор, Роберт Рид, Диана Хайланд, Карен Морроу, Ховард Платт, Базз Алдрин, Ральф Беллами, Джон Фридрих, Келли Уорд

О фильме:
Родившегося без иммунитета малыша, родители, боящиеся его потерять, помещают в пластиковый бункер. Он вынужден жить «под колпаком»...



Страна: США
Студия: American Broadcasting Company (ABC), Spelling-Goldberg Productions
Продолжительность: 01:37:06.821
Перевод: Профессиональный (двухголосый закадровый)

Файл
Кодек: h.264
Качество: DVDRip-AVC
Видео: 640x480 (4:3), 23.976 fps, AVC, ~2193 Kbps, 0.298 bits/pixel
Звук:
Английский, 48.0 KHz, AC3, 2 ch, 192 Kbps (двойное моно)
Русский, 48.0 KHz, AC3, 1 ch, 192 Kbps
Субтитры: Русские, SRT(UTF-8)
Общее
Уникальный идентификатор : 199885903870415442485922732143117078468 (0x96609FF11715D9DF833BF67B7D080FC4)
Полное имя : D:FilmsPod_kolpakom.1976.DVDRip-AVC.mkv
Формат : Matroska
Версия формата : Version 4 / Version 2
Размер файла : 1,75 Гбайт
Продолжительность : 1 ч. 37 м.
Общий поток : 2579 Кбит/сек
Дата кодирования : UTC 2014-02-18 18:41:58
Программа кодирования : mkvmerge v6.7.0 ('Back to the Ground') 64bit built on Jan 8 2014 15:10:52
Библиотека кодирования : libebml v1.3.0 + libmatroska v1.4.1

Видео
Идентификатор : 1
Формат : AVC
Формат/Информация : Advanced Video Codec
Профиль формата : High@L4.1
Параметр CABAC формата : Да
Параметр ReFrames формата : 16 кадров
Идентификатор кодека : V_MPEG4/ISO/AVC
Продолжительность : 1 ч. 37 м.
Битрейт : 2193 Кбит/сек
Ширина : 640 пикселей
Высота : 480 пикселей
Соотношение сторон : 4:3
Режим частоты кадров : Постоянный
Частота кадров : 23,976 кадра/сек
Цветовое пространство : YUV
Субдискретизация насыщенности : 4:2:0
Битовая глубина : 8 бит
Тип развёртки : Прогрессивная
Бит/(Пиксели*Кадры) : 0.298
Размер потока : 1,45 Гбайт (83%)
Библиотека кодирования : x264 core 138 r2358 9e941d1
Настройки программы : cabac=1 / ref=16 / deblock=1:0:0 / analyse=0x3:0x133 / me=umh / subme=10 / psy=1 / psy_rd=1.10:0.10 / mixed_ref=1 / me_range=32 / chroma_me=1 / trellis=2 / 8x8dct=1 / cqm=0 / deadzone=21,11 / fast_pskip=0 / chroma_qp_offset=-6 / threads=8 / lookahead_threads=2 / sliced_threads=0 / nr=0 / decimate=0 / interlaced=0 / bluray_compat=0 / constrained_intra=0 / bframes=10 / b_pyramid=2 / b_adapt=2 / b_bias=0 / direct=3 / weightb=1 / open_gop=0 / weightp=2 / keyint=240 / keyint_min=23 / scenecut=60 / intra_refresh=0 / rc_lookahead=60 / rc=2pass / mbtree=0 / bitrate=2193 / ratetol=1.0 / qcomp=0.60 / qpmin=0 / qpmax=69 / qpstep=4 / cplxblur=20.0 / qblur=0.5 / vbv_maxrate=50000 / vbv_bufsize=62500 / nal_hrd=none / ip_ratio=1.40 / pb_ratio=1.30 / aq=2:1.00
Default : Нет
Forced : Нет
Коэффициенты матрицы : BT.601

Аудио #1
Идентификатор : 2
Формат : AC-3
Формат/Информация : Audio Coding 3
Расширение режима : CM (complete main)
Параметр Endianness формата : Big
Идентификатор кодека : A_AC3
Продолжительность : 1 ч. 37 м.
Вид битрейта : Постоянный
Битрейт : 192 Кбит/сек
Каналы : 2 канала
Расположение каналов : Front: L R
Частота : 48,0 КГц
Битовая глубина : 16 бит
Метод сжатия : С потерями
Размер потока : 133 Мбайт (7%)
Язык : English
Default : Нет
Forced : Нет

Аудио #2
Идентификатор : 3
Формат : AC-3
Формат/Информация : Audio Coding 3
Расширение режима : CM (complete main)
Параметр Endianness формата : Big
Идентификатор кодека : A_AC3
Продолжительность : 1 ч. 37 м.
Вид битрейта : Постоянный
Битрейт : 192 Кбит/сек
Каналы : 1 канал
Расположение каналов : Front: C
Частота : 48,0 КГц
Битовая глубина : 16 бит
Метод сжатия : С потерями
Размер потока : 133 Мбайт (7%)
Язык : Russian
Default : Да
Forced : Нет

Текст
Идентификатор : 4
Формат : UTF-8
Идентификатор кодека : S_TEXT/UTF8
Идентификатор кодека/Информация : UTF-8 Plain Text
Язык : Russian
Default : Нет
Forced : Нет

Меню
00:00:00.000 : en:Chapter 01
00:09:47.334 : en:Chapter 02
00:20:51.801 : en:Chapter 03
00:29:56.702 : en:Chapter 04
00:39:43.570 : en:Chapter 05
00:51:02.304 : en:Chapter 06
00:59:01.337 : en:Chapter 07
01:09:59.739 : en:Chapter 08
01:20:17.173 : en:Chapter 09
01:30:31.907 : en:Chapter 10
Исходник R1 + синхр. звуковая дорожка с хорошим переводом с VHS-рипа и русские субтитры. Титры синхронизированы по речи, перевод немного подкорректирован в соответствии с ориг. дорожкой.



Скачать Под.Колпаком.The.Boy.in.the.Plastic.Bubble.(Рэндал.Клайзер).[1976.драма.DVDRip-AVC].[DVO]+[Sub].torrent без регистрации
Золото ЗОЛОТАЯ РАЗДАЧА! СКАЧАННОЕ НЕ ЗАСЧИТЫВАЕТСЯ! Золото
Дата: Зарегистрирован   [ Тип: внутренний ] Как тут cкачать?
MAGNET ссылка
MAGNET ссылка


Скачать .torrent

18 KB

Статус: проверено DHT
Скачан: торрент - 130 раз, раздача полностью - 23 раз
Размер: 1,75 GB
Оценка:  - (Голосов: 0)
Поблагодарили: 1
Поделиться ссылкой на эту раздачу с друзьями:
В контактеFacebookОдноклассникиTwitterLivejournalМой МирLiveinternet
 

 
Показать сообщения:    


Вы не можете начинать темы
Вы не можете отвечать на сообщения
Вы не можете редактировать свои сообщения
Вы не можете удалять свои сообщения
Вы не можете голосовать в опросах
Вы не можете прикреплять файлы к сообщениям
Вы можете скачивать файлы