Loading...
Error

Скачать Франциск / Francesco (Лилиана Кавани) [1989, драма, биография, DVDRip-AVC] [MVO]+[Sub] торрент без регистрации

 
Статистика раздачи
Размер:  3,27 GB   |    Скачан:  129 раз
Сидов:  1  [  0 KB/s  ]  
 
Автор Сообщение

Marsianka

[] 

Информация о фильме
Название: Франциск
Оригинальное название: Francesco
Год выхода: 1989
Жанр: драма, биография
Режиссер: Лилиана Кавани
В ролях: Мики Рурк, Хелена Бонхэм Картер, Андреа Ферреоль, Марио Адорф, Фабио Буссотти, Паоло Пройетти, Паоло Боначелли, Ханс Цишлер, Хайнер Лаутербах, Петер Берлинг

О фильме:
Экранизация сюжета о святом Франциске Ассизском. Его биография в свое время тоже считалась скандальной поразила весь христианский мир. Сын богатых родителей, Франциск (в итальянской интерпретации Франческо) бросил богатство и родителей и ушел в пустыню, убивать плоть и молиться Зачем?...
Сама тема очень интересна - посмотреть на человека, который основал такой многочисленный и влиятельный орден, как францисканцы. Посмотреть, как он пришел к Богу, отказавшись от всего.



Страна: Италия, Германия
Студия: Istituto Luce, Ital-Noleggio Cinematografico,Karol Film,Radiotelevisione Italiana (RAI),Royal Film
Продолжительность: 02:30:16.480
Перевод: Профессиональный (многоголосый, закадровый)

Файл
Кодек: h.264
Качество: DVDRip-AVC
Видео: 688x560 (1.729) @ 968x560 (анаморф), 25.000 fps, AVC, ~2340 Kbps, 0.243 bits/pixel
Русский, 48.0 KHz, AC3, 6 ch, 384 Kbps
Итальянский, 48.0 KHz, AC3, 6 ch, 384 Kbps
Субтитры: Русские, VobSub
Общее
Уникальный идентификатор : 227942631623225344876759911556109144194 (0xAB7C276B8838AD81A96A179F84C99082)
Полное имя : D:FilmsFrancisk.1989.DVDRip-AVC.mkv
Формат : Matroska
Версия формата : Version 4 / Version 2
Размер файла : 3,27 Гбайт
Продолжительность : 2 ч. 30 м.
Общий поток : 3111 Кбит/сек
Дата кодирования : UTC 2014-02-18 18:50:30
Программа кодирования : mkvmerge v6.7.0 ('Back to the Ground') 64bit built on Jan 8 2014 15:10:52
Библиотека кодирования : libebml v1.3.0 + libmatroska v1.4.1

Видео
Идентификатор : 1
Формат : AVC
Формат/Информация : Advanced Video Codec
Профиль формата : High@L4.1
Параметр CABAC формата : Да
Параметр ReFrames формата : 16 кадров
Идентификатор кодека : V_MPEG4/ISO/AVC
Продолжительность : 2 ч. 30 м.
Битрейт : 2340 Кбит/сек
Ширина : 688 пикселей
Высота : 560 пикселей
Соотношение сторон : 1,729
Режим частоты кадров : Постоянный
Частота кадров : 25,000 кадров/сек
Цветовое пространство : YUV
Субдискретизация насыщенности : 4:2:0
Битовая глубина : 8 бит
Тип развёртки : Прогрессивная
Бит/(Пиксели*Кадры) : 0.243
Размер потока : 2,39 Гбайт (73%)
Библиотека кодирования : x264 core 138 r2358 9e941d1
Настройки программы : cabac=1 / ref=16 / deblock=1:0:0 / analyse=0x3:0x133 / me=umh / subme=10 / psy=1 / psy_rd=1.10:0.10 / mixed_ref=1 / me_range=32 / chroma_me=1 / trellis=2 / 8x8dct=1 / cqm=0 / deadzone=21,11 / fast_pskip=0 / chroma_qp_offset=-6 / threads=8 / lookahead_threads=2 / sliced_threads=0 / nr=0 / decimate=0 / interlaced=0 / bluray_compat=0 / constrained_intra=0 / bframes=11 / b_pyramid=2 / b_adapt=2 / b_bias=0 / direct=3 / weightb=1 / open_gop=0 / weightp=2 / keyint=250 / keyint_min=25 / scenecut=60 / intra_refresh=0 / rc_lookahead=60 / rc=2pass / mbtree=0 / bitrate=2340 / ratetol=1.0 / qcomp=0.60 / qpmin=0 / qpmax=69 / qpstep=4 / cplxblur=20.0 / qblur=0.5 / vbv_maxrate=50000 / vbv_bufsize=62500 / nal_hrd=none / ip_ratio=1.40 / pb_ratio=1.30 / aq=2:1.00
Default : Нет
Forced : Нет
Коэффициенты матрицы : BT.601

Аудио #1
Идентификатор : 2
Формат : AC-3
Формат/Информация : Audio Coding 3
Расширение режима : CM (complete main)
Параметр Endianness формата : Big
Идентификатор кодека : A_AC3
Продолжительность : 2 ч. 30 м.
Вид битрейта : Постоянный
Битрейт : 384 Кбит/сек
Каналы : 6 каналов
Расположение каналов : Front: L C R, Side: L R, LFE
Частота : 48,0 КГц
Битовая глубина : 16 бит
Метод сжатия : С потерями
Размер потока : 413 Мбайт (12%)
Язык : Russian
Default : Да
Forced : Нет

Аудио #2
Идентификатор : 3
Формат : AC-3
Формат/Информация : Audio Coding 3
Расширение режима : CM (complete main)
Параметр Endianness формата : Big
Идентификатор кодека : A_AC3
Продолжительность : 2 ч. 30 м.
Вид битрейта : Постоянный
Битрейт : 384 Кбит/сек
Каналы : 6 каналов
Расположение каналов : Front: L C R, Side: L R, LFE
Частота : 48,0 КГц
Битовая глубина : 16 бит
Метод сжатия : С потерями
Размер потока : 413 Мбайт (12%)
Язык : Italian
Default : Нет
Forced : Нет

Текст
Идентификатор : 4
Формат : VobSub
Режим смешивания : zlib
Идентификатор кодека : S_VOBSUB
Идентификатор кодека/Информация : The same subtitle format used on DVDs
Язык : Russian
Default : Нет
Forced : Нет

Меню
00:00:00.000 : en:Chapter 01
00:08:49.960 : en:Chapter 02
00:13:19.080 : en:Chapter 03
00:20:57.720 : en:Chapter 04
00:30:57.440 : en:Chapter 05
00:45:31.640 : en:Chapter 06
00:53:31.520 : en:Chapter 07
01:02:49.640 : en:Chapter 08
01:11:45.760 : en:Chapter 09
01:16:47.680 : en:Chapter 10
01:27:49.120 : en:Chapter 11
01:36:55.480 : en:Chapter 12
01:52:29.120 : en:Chapter 13
01:56:04.000 : en:Chapter 14
02:13:15.440 : en:Chapter 15
02:24:56.760 : en:Chapter 16
Источник R5 DVD9
frame I:1191 Avg QP:15.71 size: 68731
frame P:55523 Avg QP:18.55 size: 25726
frame B:168698 Avg QP:20.33 size: 6677
Релиз от: Temperest



Скачать Франциск.Francesco.(Лилиана.Кавани).[1989.драма.биография.DVDRip-AVC].[MVO]+[Sub].torrent без регистрации
Золото ЗОЛОТАЯ РАЗДАЧА! СКАЧАННОЕ НЕ ЗАСЧИТЫВАЕТСЯ! Золото
Дата: Зарегистрирован   [ Тип: внутренний ] Как тут cкачать?
MAGNET ссылка
MAGNET ссылка


Скачать .torrent

17 KB

Статус: проверено DHT
Скачан: торрент - 129 раз, раздача полностью - 6 раз
Размер: 3,27 GB
Оценка:  - (Голосов: 0)
Поблагодарили: 3
Поделиться ссылкой на эту раздачу с друзьями:
В контактеFacebookОдноклассникиTwitterLivejournalМой МирLiveinternet
 

 
Показать сообщения:    


Вы не можете начинать темы
Вы не можете отвечать на сообщения
Вы не можете редактировать свои сообщения
Вы не можете удалять свои сообщения
Вы не можете голосовать в опросах
Вы не можете прикреплять файлы к сообщениям
Вы можете скачивать файлы