Loading...
Error

Скачать Челюсти / JAWS (Steven Spielberg) [1975, Ужасы , триллер, BDRip-AVC] [MVO] [AVO (Живов , Гаврилов) ] + [Original Eng] торрент без регистрации

 
Статистика раздачи
Размер:  2,9 GB   |    Скачан:  139 раз

Полного источника не было: 18 дней

 
Автор Сообщение

jon99

[] 


Челюсти / JAWS


Год выпуска: 1975
Выпущено: США
Жанр: Ужасы , триллер
Продолжительность: 02:04:01
Перевод: Профессиональный (многоголосый)
Перевод: Авторский (одноголосый) Ю.Живов / А.Гаврилов
Субтитры: русский, английский
Режиссер: Steven Spielberg
В ролях: Рой Шайдер, Роберт Шоу, Ричард Дрейфусс, Лоррэйн Гари, Мюррэй Хэмилтон, Карл Готтлиб, Джефри Крамер, Джонатан Филли, Крис Ребелло
Описание: Действие картины протекает в течение пяти дней - на острове Э́мити, где расположен небольшой курортный городок. В этом тихом и солнечном месте произошли ужасные трагические события, начало которым было положено ранним утром, когда шеф местной полиции Мартин Броуди и его помощник находят на берегу остатки тела девушки. Она стала первой жертвой огромной большой белой акулы, которая появилась у берегов Эмити...
С каждым днем число жертв кровожадной акулы продолжает увеличиваться. Сможет ли отважный охотник на акул, ветеран Второй мировой войны, рыбак Квинт на своём судне выловить и убить акулу-людоеда? В опасную морскую экспедицию вместе с ним отправляются Мартин Броуди и прибывший на остров эксперт из национального института океанографии Мэтт Хупер.

Качество: BDRip-AVC Исходник- - > BDRemux 1080p
Формат: MKV
Видео кодек: H.264
Аудио кодек: AC3
Видео: 1024x432 (2,35:1), 23,976 fps, H264 ~ 1815 kbps avg, 0.171 bit/pixel

Цитата:

Аудио#1: 48 kHz, Dolby AC3 5.1, 448 kbps Русский MVO
Аудио#2: 48 kHz, Dolby AC3 5.1, 448 kbps Русский AVO Ю. Живов
Аудио#3: 48 kHz, Dolby AC3 2.0, 192 kbps Русский AVO А. Гаврилов
Аудио#4: 48 kHz, Dolby AC3 5.1, 448 kbps Английский

Цитата:

Общее
Полное имя : Chelyusti.1975.BDRip-AVC-2.91_[Youtracker]_by_AVP Studio.mkv
Формат : Matroska
Версия формата : Version 4 / Version 2
Размер файла : 2,90 Гбайт
Продолжительность : 2 ч. 4 м.
Общий поток : 3353 Кбит/сек
Название фильма : Chelyusti.1975.BDRip-AVC-2.91_[Youtracker]_by_AVP Studio
Дата кодирования : UTC 2013-08-14 06:58:09
Программа кодирования : mkvmerge v6.3.0 ('You can't stop me!') built on Jun 27 2013 22:06:07
Библиотека кодирования : libebml v1.3.0 + libmatroska v1.4.0

Видео
Идентификатор : 1
Формат : AVC
Формат/Информация : Advanced Video Codec
Профиль формата : High@L4.1
Параметр CABAC формата : Да
Параметр ReFrames формата : 11 кадров
Идентификатор кодека : V_MPEG4/ISO/AVC
Продолжительность : 2 ч. 4 м.
Битрейт : 1815 Кбит/сек
Ширина : 1024 пикселя
Высота : 432 пикселя
Соотношение сторон : 2,35:1
Частота кадров : 23,976 кадра/сек
Цветовое пространство : YUV
Субдискретизация насыщенности : 4:2:0
Битовая глубина : 8 бит
Тип развёртки : Прогрессивная
Бит/(Пиксели*Кадры) : 0.171
Размер потока : 1,52 Гбайт (52%)
Заголовок : Источник BDRemux
Библиотека кодирования : x264 core 130 r2273 b3065e6
Настройки программы : cabac=1 / ref=11 / deblock=1:-3:-2 / analyse=0x3:0x113 / me=umh / subme=9 / psy=1 / psy_rd=1.00:0.15 / mixed_ref=1 / me_range=32 / chroma_me=1 / trellis=1 / 8x8dct=1 / cqm=0 / deadzone=21,11 / fast_pskip=0 / chroma_qp_offset=-3 / threads=3 / lookahead_threads=1 / sliced_threads=0 / nr=0 / decimate=1 / interlaced=0 / bluray_compat=0 / constrained_intra=0 / bframes=10 / b_pyramid=2 / b_adapt=1 / b_bias=0 / direct=3 / weightb=1 / open_gop=0 / weightp=2 / keyint=240 / keyint_min=23 / scenecut=40 / intra_refresh=0 / rc_lookahead=60 / rc=2pass / mbtree=1 / bitrate=1815 / ratetol=1.0 / qcomp=0.60 / qpmin=0 / qpmax=69 / qpstep=4 / cplxblur=20.0 / qblur=0.5 / ip_ratio=1.40 / aq=1:1.00
Язык : English
Default : Да
Forced : Нет

Аудио #1
Идентификатор : 2
Формат : AC-3
Формат/Информация : Audio Coding 3
Расширение режима : CM (complete main)
Идентификатор кодека : A_AC3
Продолжительность : 2 ч. 4 м.
Вид битрейта : Постоянный
Битрейт : 448 Кбит/сек
Каналы : 6 каналов
Расположение каналов : Front: L C R, Side: L R, LFE
Частота : 48,0 КГц
Битовая глубина : 16 бит
Метод сжатия : С потерями
Размер потока : 397 Мбайт (13%)
Заголовок : Источник BDRemux Dolby Digital 5,1 448kb MVO
Язык : Russian
Default : Да
Forced : Нет

Аудио #2
Идентификатор : 3
Формат : AC-3
Формат/Информация : Audio Coding 3
Расширение режима : CM (complete main)
Идентификатор кодека : A_AC3
Продолжительность : 2 ч. 4 м.
Вид битрейта : Постоянный
Битрейт : 448 Кбит/сек
Каналы : 6 каналов
Расположение каналов : Front: L C R, Side: L R, LFE
Частота : 48,0 КГц
Битовая глубина : 16 бит
Метод сжатия : С потерями
Размер потока : 397 Мбайт (13%)
Заголовок : Источник BDRemux Dolby Digital 5,1 448kb AVO
Язык : Russian
Default : Нет
Forced : Нет

Аудио #3
Идентификатор : 4
Формат : AC-3
Формат/Информация : Audio Coding 3
Расширение режима : CM (complete main)
Идентификатор кодека : A_AC3
Продолжительность : 2 ч. 4 м.
Вид битрейта : Постоянный
Битрейт : 192 Кбит/сек
Каналы : 2 канала
Расположение каналов : Front: L R
Частота : 48,0 КГц
Битовая глубина : 16 бит
Метод сжатия : С потерями
Размер потока : 170 Мбайт (6%)
Заголовок : Источник BDRemux Dolby Digital 2,0 192kb AVO
Язык : Russian
Default : Нет
Forced : Нет

Аудио #4
Идентификатор : 5
Формат : AC-3
Формат/Информация : Audio Coding 3
Расширение режима : CM (complete main)
Идентификатор кодека : A_AC3
Продолжительность : 2 ч. 4 м.
Вид битрейта : Постоянный
Битрейт : 448 Кбит/сек
Каналы : 6 каналов
Расположение каналов : Front: L C R, Side: L R, LFE
Частота : 48,0 КГц
Битовая глубина : 16 бит
Метод сжатия : С потерями
Размер потока : 397 Мбайт (13%)
Заголовок : Источник BDRemux Dolby Digital 5,1 448kb Original
Язык : English
Default : Нет
Forced : Нет

Текст #1
Идентификатор : 6
Формат : UTF-8
Идентификатор кодека : S_TEXT/UTF8
Идентификатор кодека/Информация : UTF-8 Plain Text
Заголовок : Источник BDRemux
Язык : Russian
Default : Нет
Forced : Нет

Текст #2
Идентификатор : 7
Формат : UTF-8
Идентификатор кодека : S_TEXT/UTF8
Идентификатор кодека/Информация : UTF-8 Plain Text
Заголовок : Источник BDRemux
Язык : English
Default : Нет
Forced : Нет

Меню
00:00:00.000 : :Chapter 01
00:01:48.899 : :Chapter 02
00:07:33.786 : :Chapter 03
00:11:20.178 : :Chapter 04
00:13:35.355 : :Chapter 05
00:18:11.589 : :Chapter 06
00:24:30.259 : :Chapter 07
00:27:41.241 : :Chapter 08
00:32:46.672 : :Chapter 09
00:45:18.005 : :Chapter 10
00:53:31.041 : :Chapter 11
01:01:28.643 : :Chapter 12
01:06:11.800 : :Chapter 13
01:21:03.189 : :Chapter 14
01:26:24.970 : :Chapter 15
01:36:24.235 : :Chapter 16
01:50:00.801 : :Chapter 17
01:56:47.166 : :Chapter 18
01:57:52.355 : :Chapter 19
02:02:35.639 : :Chapter 20
02:04:00.807 : :Chapter 21









Скачать Челюсти.JAWS.(Steven.Spielberg).[1975.Ужасы.триллер.BDRip-AVC].[MVO].[AVO.(Живов.Гаврилов).].+.[Original.Eng].torrent без регистрации
Золото ЗОЛОТАЯ РАЗДАЧА! СКАЧАННОЕ НЕ ЗАСЧИТЫВАЕТСЯ! Золото
Дата: Зарегистрирован   [ Тип: внутренний ] Как тут cкачать?
MAGNET ссылка
MAGNET ссылка


Скачать .torrent

15 KB

Статус: * не проверено
Скачан: торрент - 139 раз, раздача полностью - 31 раз
Размер: 2,9 GB
Оценка:  5 (Голосов: 3)
Поблагодарили: 6
Поделиться ссылкой на эту раздачу с друзьями:
В контактеFacebookОдноклассникиTwitterLivejournalМой МирLiveinternet
 

 

jon99

[] 

 
Показать сообщения:    


Вы не можете начинать темы
Вы не можете отвечать на сообщения
Вы не можете редактировать свои сообщения
Вы не можете удалять свои сообщения
Вы не можете голосовать в опросах
Вы не можете прикреплять файлы к сообщениям
Вы можете скачивать файлы