Loading...
Error

Скачать Волшебники против пришельцев / Wizards vs Aliens [01x01-08 из 12] (Дэниэл О'Хара, Грифф Роулэнд, Джосс Эгнью) [2012, фэнтези, фантастика, боевик, драма, семейный, детский, DVDRip] [VO] торрент без регистрации

 
Статистика раздачи
Размер:  2,53 GB   |    Скачан:  146 раз
Сидов:  1  [  0 KB/s  ]  
 
Автор Сообщение

МихаНЕзатор

[] 

Информация о фильме
Название: Волшебники против пришельцев
Оригинальное название: Wizards vs Aliens
Год выхода: 2012
Жанр: фэнтези, фантастика, боевик, драма, семейный, детский.
Авторы идеи: Расселл Т. Дэвис, Фил Форд
Режиссер: Дэниэл О'Хара, Грифф Роулэнд, Джосс Эгнью

В ролях: Скотт Харран, Перселл Аскотт, Аннетт Бэдленд, Майкл Хиггс, Брайан Блессид, Гвендолин Кристи, Джефферсон Холл, Дэн Старки, Том Белл

О фильме: На первый взгляд, Том Кларк - обычный школьник, увлекающийся футболом, у которого есть бабушка Урсула Кроу и отец Майкл. Но никто не знает, что он и его бабушка - волшебники. Неожиданно для себя Том и его одноклассник Бенни открывают мир пришельцев. Они начинают борьбу против некроссов, пришедших за магией, оставшейся последней во вселенной. Так Том и Бенни становятся лучшими друзьями, у которых нет секретов друг от друга.



Страна: Великобритания
Продолжительность: 12 серий ~00:28:00 (каждая серия)
Перевод: Любительский одноголосный

Файл MKV
Кодек: XviD
Качество: DVDRip
Видео: mkv 720x400, 25 fps, 1080 kbps, 0.15 bit/pixel
Звук:
AC3, 48 kHz, 2 ch, 192 kbps Rus
AC3, 48 kHz, 6 ch, 448 kbps Eng
Субтитры: Русские субтитры (Алексей Глушков)

АНОНСЫ ПОПУЛЯРНЫХ РАЗДАЧ


Торрент обновлён, добавлена 8-я серия!

01. Dawn of the Nekross (Part 1)
02. Dawn of the Nekross (Part 2)
03. Grazlax Attacks (Part 1)
04. Grazlax Attacks (Part 2)
05. Rebel Magic (Part 1)
06. Rebel Magic (Part 2)
07. Friend or Foe: (Part 1)
08. Friend or Foe: (Part 2)

General
Unique ID : 245311306632771987648794690179721514732 (0xB88D3D369497EEFB98FFBAA237CACEEC)
Complete name : Wizards vs Aliens - S01S01E01 - Dawn of the Nekross (Part 1).rus.mkv
Format : Matroska
Format version : Version 2
File size : 332 MiB
Duration : 26mn 57s
Overall bit rate : 1 723 Kbps
Encoded date : UTC 2014-02-13 17:51:51
Writing application : mkvmerge v3.4.0 ('Rapunzel') built on May 15 2010 09:38:20
Writing library : libebml v0.8.0 + libmatroska v0.9.0

Video
ID : 1
Format : xvid
Codec ID : V_MS/VFW/FOURCC / xvid
Duration : 26mn 57s
Bit rate : 1 049 Kbps
Width : 720 pixels
Height : 400 pixels
Display aspect ratio : 16:9
Frame rate mode : Constant
Frame rate : 25.000 fps
Bits/(Pixel*Frame) : 0.146
Stream size : 202 MiB (61%)
Title : xvid
Default : Yes
Forced : No

Audio #1
ID : 2
Format : AC-3
Format/Info : Audio Coding 3
Mode extension : CM (complete main)
Format settings, Endianness : Big
Codec ID : A_AC3
Duration : 26mn 57s
Bit rate mode : Constant
Bit rate : 192 Kbps
Channel(s) : 2 channels
Channel positions : Front: L R
Sampling rate : 48.0 KHz
Bit depth : 16 bits
Compression mode : Lossy
Stream size : 37.0 MiB (11%)
Title : AC3 192 kbps 2.0
Language : Russian
Default : Yes
Forced : No

Audio #2
ID : 3
Format : AC-3
Format/Info : Audio Coding 3
Mode extension : CM (complete main)
Format settings, Endianness : Big
Codec ID : A_AC3
Duration : 26mn 57s
Bit rate mode : Constant
Bit rate : 448 Kbps
Channel(s) : 6 channels
Channel positions : Front: L C R, Side: L R, LFE
Sampling rate : 48.0 KHz
Bit depth : 16 bits
Compression mode : Lossy
Stream size : 86.4 MiB (26%)
Language : English
Default : No
Forced : No



Скачать Волшебники.против.пришельцев.Wizards.vs.Aliens.[01x01-08.из.12].(Дэниэл.О'Хара.Грифф.Роулэнд.Джосс.Эгнью).[2012.фэнтези.фантастика.боевик.драма.семейный.детский.DVDRip].[VO].torrent без регистрации
Золото ЗОЛОТАЯ РАЗДАЧА! СКАЧАННОЕ НЕ ЗАСЧИТЫВАЕТСЯ! Золото
Дата: Зарегистрирован   [ Тип: внутренний ] Как тут cкачать?
MAGNET ссылка
MAGNET ссылка


Скачать .torrent

14 KB

Статус: проверено DHT
Скачан: торрент - 146 раз, раздача полностью - 12 раз
Размер: 2,53 GB
Оценка:  - (Голосов: 0)
Поблагодарили: 2
Поделиться ссылкой на эту раздачу с друзьями:
В контактеFacebookОдноклассникиTwitterLivejournalМой МирLiveinternet
 

 
Показать сообщения:    


Вы не можете начинать темы
Вы не можете отвечать на сообщения
Вы не можете редактировать свои сообщения
Вы не можете удалять свои сообщения
Вы не можете голосовать в опросах
Вы не можете прикреплять файлы к сообщениям
Вы можете скачивать файлы