Loading...
Error

Скачать Джек-попрыгунчик / Jumpin' Jack Flash (Пенни Маршалл) [1986, триллер, мелодрама, комедия, HDTVRip] [MVO] торрент без регистрации

 
Статистика раздачи
Размер:  746 MB   |    Скачан:  105 раз

Полного источника не было: 25 минут

 
Автор Сообщение

Marsianka

[] 

Страна: США
Производство: 20th Century Fox Film Corporation, Lawrence Gordon Productions, Silver Pictures
Жанр: триллер, мелодрама, комедия
Год выпуска: 1986
Продолжительность: 01:40:19

Перевод: Профессиональный (многоголосый закадровый)
Оригинальная аудиодорожка: нет
Cубтитры: нет

Режиссер: Пенни Маршалл / Penny Marshall

В ролях:
Вупи Голдберг, Стивен Коллинз, Джон Вуд, Джеймс Белуши, Кэрол Кейн, Энни Поттс, Питер Майкл Гец, Роско Ли Браун, Сара Ботсфорд, Ерун Краббе, Вито Руджинис, Джонатан Прайс, Тони Хендра, Джон Ловиц, Фил Хартмен, Линн Мари Стюарт, Рен Вудс, Трэйси Рейнер, Трейси Уллмен...

Описание:
Терри работает программисткой в банке. Эта скучная нудная работа абсолютно не подходит темпераменту веселой чернокожей матершиннице.
Но все меняется, когда она получает таинственное закодированное послание. Расшифровав письмо, Терри оказывается с головой втянута в запутанную и очень опасную шпионскую игру

Исходник: HDTVRip 720p
Тип релиза: HDTVRip
Контейнер: AVI

Видео: 656x368 (16:9), 25 fps, XviD ~ 902 kbps avg, 0.149 bit/pixel
Аудио: 48 kHz, MP3 2.0, 128 kbps

Раздача от:

Общее
Полное имя : Dzhek-poprygunchik.1986.HDTVRip-745_[New-team]_by_AVP_Studio.avi
Формат : AVI
Формат/Информация : Audio Video Interleave
Размер файла : 746 Мбайт
Продолжительность : 1 ч. 40 м.
Общий поток : 1040 Кбит/сек
Программа кодирования : VirtualDubModRus 1.5.10.2 (build 2542/release)
Библиотека кодирования : VirtualDubMod build 2542/release

Видео
Идентификатор : 0
Формат : MPEG-4 Visual
Профиль формата : Advanced Simple@L5
Параметр BVOP формата : 1
Параметр QPel формата : Нет
Параметр GMC формата : Без точки перехода
Параметр матрицы формата : Выборочная
Идентификатор кодека : XVID
Идентификатор кодека/Подсказка : XviD
Продолжительность : 1 ч. 40 м.
Битрейт : 902 Кбит/сек
Ширина : 656 пикселей
Высота : 368 пикселей
Соотношение сторон : 16:9
Частота кадров : 25,000 кадров/сек
Цветовое пространство : YUV
Субдискретизация насыщенности : 4:2:0
Битовая глубина : 8 бит
Тип развёртки : Прогрессивная
Метод сжатия : С потерями
Бит/(Пиксели*Кадры) : 0.149
Размер потока : 647 Мбайт (87%)
Библиотека кодирования : XviD 73

Аудио
Идентификатор : 1
Формат : MPEG Audio
Версия формата : Version 1
Профиль формата : Layer 3
Идентификатор кодека : 55
Идентификатор кодека/Подсказка : MP3
Продолжительность : 1 ч. 40 м.
Вид битрейта : Постоянный
Битрейт : 128 Кбит/сек
Каналы : 2 канала
Частота : 48,0 КГц
Метод сжатия : С потерями
Размер потока : 91,8 Мбайт (12%)
Выравнивание : Соединение по промежуткам
Продолжительность промежутка : 40 мс. (1,00 видеокадр)
Время предзагрузки промежутка : 504 мс.
Библиотека кодирования : LAME3.99r
Настройки программы : -m s -V 4 -q 2 -lowpass 17 -b 128



Скачать Джек-попрыгунчик.Jumpin'.Jack.Flash.(Пенни.Маршалл).[1986.триллер.мелодрама.комедия.HDTVRip].[MVO].torrent без регистрации
Золото ЗОЛОТАЯ РАЗДАЧА! СКАЧАННОЕ НЕ ЗАСЧИТЫВАЕТСЯ! Золото
Дата: Зарегистрирован   [ Тип: внутренний ] Как тут cкачать?
MAGNET ссылка
MAGNET ссылка


Скачать .torrent

15 KB

Статус: проверено DHT
Скачан: торрент - 105 раз, раздача полностью - 2 раз
Размер: 746 MB
Оценка:  - (Голосов: 0)
Поблагодарили: 0
Поделиться ссылкой на эту раздачу с друзьями:
В контактеFacebookОдноклассникиTwitterLivejournalМой МирLiveinternet
 

 
Показать сообщения:    


Вы не можете начинать темы
Вы не можете отвечать на сообщения
Вы не можете редактировать свои сообщения
Вы не можете удалять свои сообщения
Вы не можете голосовать в опросах
Вы не можете прикреплять файлы к сообщениям
Вы можете скачивать файлы