Loading...
Error

Скачать Эксперимент с ужасом / Experiment in Terror (Блейк Эдвардс) [1962, триллер, криминал, детектив, HDRip] [MVO]+[AVO]+[Sub] торрент без регистрации

 
Статистика раздачи
Размер:  2,18 GB   |    Скачан:  98 раз
Сидов:  1  [  0 KB/s  ]  
 
Автор Сообщение

Marsianka

[] 

Информация о фильме
Название: Эксперимент с ужасом
Оригинальное название: Experiment in Terror
Год выхода: 1962
Жанр: триллер, криминал, детектив
Режиссер: Блейк Эдвардс / Blake Edwards
В ролях: Гленн Форд, Ли Ремик, Стефани Пауэрс, Рой Пул, Нед Глэсс, Анита Лу, Патриция Хьюстон, Гилберт Грин, Клифтон Джеймс, Аль Авалон

О фильме:
Молодая работница банка Келли поздно возвращается домой. В гараже на неё нападает неизвестный и долго говорит с ней, держа сзади за шею. Он приказывает ей украсть из банка 100 000 долларов. Если она откажется, то её сестру ждет мучительная смерть. Преступник знает абсолютно всё о жизни героини Ли Ремик: где она живет, где работает, где учится её сестра и т. д. В отчаянии Келли обращается в ФБР, но преступник сразу же узнает об этом и грозится убить её сестру


Страна: США
Продолжительность: 02:03:21
Перевод: Перевод 1: Профессиональный (многоголосый закадровый) - Первый канал
Перевод 2: Авторский (одноголосый закадровый) - В. Сонькин

Файл
Кодек: XviD
Качество: HDRip
Видео: 704x384 (1.83:1), 23.976 fps, XviD build 73 ~2134 kbps avg, 0.33 bit/pixel
Аудио 1: 48 kHz, AC3, 2/0 (L,R) ch, ~192.00 kbps avg | Профессиональный (многоголосый закадровый) - Первый канал
Аудио 2: 48 kHz, AC3, 2/0 (L,R) ch, ~192.00 kbps avg | Авторский (одноголосый закадровый) - В. Сонькин
Субтитры: English - отдельно
Семпл
General
Complete name : Experiment.in.Terror.1962.HDRip.by Fredd Kruger/Experiment.in.Terror.1962.HDRip.by Fredd Kruger.avi
Format : AVI
Format/Info : Audio Video Interleave
File size : 2.18 GiB
Duration : 2h 3mn
Overall bit rate : 2 534 Kbps
Writing application : VirtualDubMod 1.5.10.3 | www.virtualdub-fr.org || (build 2550/release)
Writing library : VirtualDubMod build 2550/release

Video
ID : 0
Format : MPEG-4 Visual
Format profile : Advanced Simple@L5
Format settings, BVOP : 1
Format settings, QPel : No
Format settings, GMC : No warppoints
Format settings, Matrix : Custom
Codec ID : XVID
Codec ID/Hint : XviD
Duration : 2h 3mn
Source duration : 1h 1mn
Bit rate : 2 235 Kbps
Width : 704 pixels
Height : 384 pixels
Display aspect ratio : 1.85:1
Frame rate : 23.976 fps
Color space : YUV
Chroma subsampling : 4:2:0
Bit depth : 8 bits
Scan type : Progressive
Compression mode : Lossy
Bits/(Pixel*Frame) : 0.345
Stream size : 985 MiB (44%)
Writing library : XviD 73

Audio #1
ID : 1
Format : AC-3
Format/Info : Audio Coding 3
Mode extension : CM (complete main)
Format settings, Endianness : Big
Codec ID : 2000
Duration : 2h 3mn
Source duration : 1h 1mn
Bit rate mode : Constant
Bit rate : 192 Kbps
Channel(s) : 2 channels
Channel positions : Front: L R
Sampling rate : 48.0 KHz
Bit depth : 16 bits
Compression mode : Lossy
Stream size : 84.6 MiB (4%)
Alignment : Split accross interleaves
Interleave, duration : 42 ms (1.00 video frame)
Interleave, preload duration : 500 ms

Audio #2
ID : 2
Format : AC-3
Format/Info : Audio Coding 3
Mode extension : CM (complete main)
Format settings, Endianness : Big
Codec ID : 2000
Duration : 2h 3mn
Source duration : 1h 1mn
Bit rate mode : Constant
Bit rate : 192 Kbps
Channel(s) : 2 channels
Channel positions : Front: L R
Sampling rate : 48.0 KHz
Bit depth : 16 bits
Compression mode : Lossy
Stream size : 84.6 MiB (4%)
Alignment : Split accross interleaves
Interleave, duration : 42 ms (1.00 video frame)
Interleave, preload duration : 500 ms
Релиз от: Fredd Kruger



Скачать Эксперимент.с.ужасом.Experiment.in.Terror.(Блейк.Эдвардс).[1962.триллер.криминал.детектив.HDRip].[MVO]+[AVO]+[Sub].torrent без регистрации
Золото ЗОЛОТАЯ РАЗДАЧА! СКАЧАННОЕ НЕ ЗАСЧИТЫВАЕТСЯ! Золото
Дата: Зарегистрирован   [ Тип: внутренний ] Как тут cкачать?
MAGNET ссылка
MAGNET ссылка


Скачать .torrent

12 KB

Статус: проверено DHT
Скачан: торрент - 98 раз, раздача полностью - 20 раз
Размер: 2,18 GB
Оценка:  - (Голосов: 0)
Поблагодарили: 0
Поделиться ссылкой на эту раздачу с друзьями:
В контактеFacebookОдноклассникиTwitterLivejournalМой МирLiveinternet
 

 
Показать сообщения:    


Вы не можете начинать темы
Вы не можете отвечать на сообщения
Вы не можете редактировать свои сообщения
Вы не можете удалять свои сообщения
Вы не можете голосовать в опросах
Вы не можете прикреплять файлы к сообщениям
Вы можете скачивать файлы