Loading...
Error

Скачать Эксперимент с ужасом / Experiment in Terror (Блейк Эдвардс) [1962, триллер, криминал, детектив, HDRip] [MVO] торрент без регистрации

 
Статистика раздачи
Размер:  747 MB   |    Скачан:  96 раз

Полного источника не было: 26 минут

 
Автор Сообщение

Marsianka

[] 

Информация о фильме
Название: Эксперимент с ужасом
Оригинальное название: Experiment in Terror
Год выхода: 1962
Жанр: триллер, криминал, детектив
Режиссер: Блейк Эдвардс / Blake Edwards
В ролях: Гленн Форд, Ли Ремик, Стефани Пауэрс, Рой Пул, Нед Глэсс, Анита Лу, Патриция Хьюстон, Гилберт Грин, Клифтон Джеймс, Аль Авалон

О фильме:
Молодая работница банка Келли поздно возвращается домой. В гараже на неё нападает неизвестный и долго говорит с ней, держа сзади за шею. Он приказывает ей украсть из банка 100 000 долларов. Если она откажется, то её сестру ждет мучительная смерть. Преступник знает абсолютно всё о жизни героини Ли Ремик: где она живет, где работает, где учится её сестра и т. д. В отчаянии Келли обращается в ФБР, но преступник сразу же узнает об этом и грозится убить её сестру


Страна: США
Продолжительность: 02:03:21
Перевод: Профессиональный (многоголосый закадровый) - Первый канал

Файл
Кодек: XviD
Качество: HDRip
Видео: 624x336 (1.86:1), 23.976 fps, XviD build 73 ~709 kbps avg, 0.14 bit/pixel
Звук: 48 kHz, MPEG Layer 3, 2 ch, ~128.00 kbps avg | Профессиональный (многоголосый закадровый) - Первый канал

Семпл
General
Complete name : Experiment.in.Terror.1962.HDRip.by Fredd Kruger.avi
Format : AVI
Format/Info : Audio Video Interleave
File size : 747 MiB
Duration : 2h 3mn
Overall bit rate : 847 Kbps
Writing application : VirtualDubMod 1.5.10.3 | www.virtualdub-fr.org || (build 2550/release)
Writing library : VirtualDubMod build 2550/release

Video
ID : 0
Format : MPEG-4 Visual
Format profile : Advanced Simple@L5
Format settings, BVOP : 1
Format settings, QPel : No
Format settings, GMC : No warppoints
Format settings, Matrix : Custom
Codec ID : XVID
Codec ID/Hint : XviD
Duration : 2h 3mn
Bit rate : 676 Kbps
Width : 624 pixels
Height : 336 pixels
Display aspect ratio : 1.85:1
Frame rate : 23.976 fps
Color space : YUV
Chroma subsampling : 4:2:0
Bit depth : 8 bits
Scan type : Progressive
Compression mode : Lossy
Bits/(Pixel*Frame) : 0.135
Stream size : 597 MiB (80%)
Writing library : XviD 73

Audio
ID : 1
Format : MPEG Audio
Format version : Version 1
Format profile : Layer 3
Codec ID : 55
Codec ID/Hint : MP3
Duration : 2h 3mn
Bit rate mode : Constant
Bit rate : 128 Kbps
Channel(s) : 2 channels
Sampling rate : 48.0 KHz
Compression mode : Lossy
Stream size : 113 MiB (15%)
Alignment : Aligned on interleaves
Writing library : L3.99r
Encoding settings : -m s -V 4 -q 0 -lowpass 17 -b 128
Релиз от: Fredd Kruger



Скачать Эксперимент.с.ужасом.Experiment.in.Terror.(Блейк.Эдвардс).[1962.триллер.криминал.детектив.HDRip].[MVO].torrent без регистрации
Золото ЗОЛОТАЯ РАЗДАЧА! СКАЧАННОЕ НЕ ЗАСЧИТЫВАЕТСЯ! Золото
Дата: Зарегистрирован   [ Тип: внутренний ] Как тут cкачать?
MAGNET ссылка
MAGNET ссылка


Скачать .torrent

15 KB

Статус: проверено DHT
Скачан: торрент - 96 раз, раздача полностью - 0 раз
Размер: 747 MB
Оценка:  - (Голосов: 0)
Поблагодарили: 0
Поделиться ссылкой на эту раздачу с друзьями:
В контактеFacebookОдноклассникиTwitterLivejournalМой МирLiveinternet
 

 
Показать сообщения:    


Вы не можете начинать темы
Вы не можете отвечать на сообщения
Вы не можете редактировать свои сообщения
Вы не можете удалять свои сообщения
Вы не можете голосовать в опросах
Вы не можете прикреплять файлы к сообщениям
Вы можете скачивать файлы