Loading...
Error

Скачать Робин и Мэриан / Robin and Marian (Ричард Лестер) [1976, приключения, DVDRip] [MVO] торрент без регистрации

 
Статистика раздачи
Размер:  742 MB   |    Скачан:  103 раза
Сидов:  1  [  0 KB/s  ]  
 
Автор Сообщение

Marsianka

[] 


Название:Робин и Мэриан
Год выпуска:1976
Страна:США
Жанр: приключения
Продолжительность:01:42:35
Перевод:Профессиональный (многоголосый, закадровый)
Русские субтитры: нет
Режиссер: Ричард Лестер / Richard Lester
В ролях: Шон Коннери, Одри Хепберн, Роберт Шоу, Ричард Харрис, Никол Уильямсон, Денхолм Эллиотт, Кеннет Хэйг, Иан Холм, Ронни Баркер, Билл Мэйнард
Описание: Умирает король Ричард Львиное Сердце (Ричард Харрис). Робин Гуд (Шон Коннери) и его неразлучный друг Маленький Джон (Никол Уильямсон), служившие ему верой и правдой, возвращаются из крестовых походов в Англию, в Шервуд. За два десятилетия на родине изменилось многое. Но старый шериф Ноттингемский (Роберт Шоу) все еще на месте, и старая вражда разгорается вновь. А Робин хочет только одного: спокойно жить со своей давней возлюбленной Мэриан (Одри Хэпберн) в родном лесу
Качество: DVDRip
Формат: AVI
Видео кодек: XviD
Аудио кодек: MP3
Видео: XviD 876kbps 640x352 25.000fps (153875 frames)
Аудио: MP3 128kbps 2ch 16bit 48000khz

Format : AVI
Format/Info : Audio Video Interleave
File size : 742 MiB
Duration : 1h 42mn
Overall bit rate : 1 012 Kbps
Writing application : VirtualDubMod 1.5.10.2 (build 2540/release)
Writing library : VirtualDubMod build 2540/release

Video
ID : 0
Format : MPEG-4 Visual
Format profile : Advanced Simple@L5
Format settings, BVOP : Yes
Format settings, QPel : No
Format settings, GMC : No warppoints
Format settings, Matrix : Default (MPEG)
Codec ID : XVID
Codec ID/Hint : XviD
Duration : 1h 42mn
Bit rate : 874 Kbps
Width : 640 pixels
Height : 352 pixels
Display aspect ratio : 16:9
Frame rate : 25.000 fps
Color space : YUV
Chroma subsampling : 4:2:0
Bit depth : 8 bits
Scan type : Progressive
Compression mode : Lossy
Bits/(Pixel*Frame) : 0.155
Stream size : 641 MiB (86%)
Writing library : XviD 1.2.0.dev47 (UTC 2006-11-01)

Audio
ID : 1
Format : MPEG Audio
Format version : Version 1
Format profile : Layer 3
Codec ID : 55
Codec ID/Hint : MP3
Duration : 1h 42mn
Bit rate mode : Constant
Bit rate : 128 Kbps
Channel(s) : 2 channels
Sampling rate : 48.0 KHz
Compression mode : Lossy
Stream size : 93.9 MiB (13%)
Alignment : Aligned on interleaves
Interleave, duration : 40 ms (1.00 video frame)
Interleave, preload duration : 504 ms
Writing library : LAME3.97
Encoding settings : -m s -V 4 -q 2 -lowpass 17 -b 128




Скачать Робин.и.Мэриан.Robin.and.Marian.(Ричард.Лестер).[1976.приключения.DVDRip].[MVO].torrent без регистрации
Золото ЗОЛОТАЯ РАЗДАЧА! СКАЧАННОЕ НЕ ЗАСЧИТЫВАЕТСЯ! Золото
Дата: Зарегистрирован   [ Тип: внутренний ] Как тут cкачать?
MAGNET ссылка
MAGNET ссылка


Скачать .torrent

15 KB

Статус: проверено DHT
Скачан: торрент - 103 раз, раздача полностью - 2 раз
Размер: 742 MB
Оценка:  - (Голосов: 0)
Поблагодарили: 0
Поделиться ссылкой на эту раздачу с друзьями:
В контактеFacebookОдноклассникиTwitterLivejournalМой МирLiveinternet
 

 
Показать сообщения:    


Вы не можете начинать темы
Вы не можете отвечать на сообщения
Вы не можете редактировать свои сообщения
Вы не можете удалять свои сообщения
Вы не можете голосовать в опросах
Вы не можете прикреплять файлы к сообщениям
Вы можете скачивать файлы