Loading...
Error

Скачать Клондайк / Klondike (сезон 1, серия 1-6 из 6) (Саймон Селлан Джоунс) [2014, драма, приключения, вестерн , WEB-DLRip-AVC 1080p] [DD5.1] [MVO] [AlexFilm] торрент без регистрации

 
Статистика раздачи
Размер:  11,86 GB   |    Скачан:  185 раз
Сидов:  1  [  0 KB/s  ]  
 
Автор Сообщение

Nikolai.Baranov

[] 





Клондайк / Klondike
мини-сериал
1-6 серии (3 части)




Год выпуска: 2014
Выпущено: США, Канада
Жанр: драма, приключения, вестерн
Продолжительность: 1ч.~ 01:35:54,2ч.~ 01:25:04,3ч.~ 01:34:05
Сезон: 1
Серия: 1-6
Количество серий в сезоне: 6
Перевод: Doctor Joker и MartinaG
Озвучка:Профессиональная многоголосая закадровая(AlexFilm),(Евгения Тихонова,Михаил Суслов,Владимир Курдов,Владислав Данилов,Константин Погодаев)
Субтитры: НЕТ



Режиссер: Саймон Селлан Джоунс

В ролях: Ричард Мэдден, Эбби Корниш, Сэм Шепард, Тим Рот, Мартон Чокаш, Иэн Харт, Грег Лосон, Конор Лесли, Тим Блейк Нельсон, Август Прю, Джонни Симмонс, Брайан Маркинсон, Рон Селмур, Колин Каннингэм...


В центре сюжета — история шестерых золотоискателей, которые встречаются в долине реки Юкон во времена Золотой лихорадки. Им предстоит выжить в суровых северных краях, куда отправлялись самые отчаянные авантюристы.

Качество : WEB-DLRip-AVC 1080p
Формат: MPEG-4
Видео кодек: H264
Видео: 5712Кбит/сек,1920х1080(16.9),в 25.000кадр/сек,AVC(Baseline@L4.0)(1Ref Frames)
Аудио кодек: AAC
Аудио Russian Dolby Digital 5.1:456Кбит/сек,48.0КГц,6каналов,AAC,(Version4)(LC)


Звуковая дорожка сделана путем наложения чистого голоса озвучивателей на центральный канал оригинальной дорожки. Качество идентично звуковой дорожке.



1 часть, 1 глава (Part 1, Chapter 1)
1 часть, 2 глава (Part 1, Chapter 2)
2 часть, 3 глава (Part 2, Chapter 3)
2 часть, 4 глава (Part 2, Chapter 4)
3 часть, 5 глава (Part 3, Chapter 5)
3 часть, 6 глава (Part 3, Chapter 6)



General
Полное имя : D:\Ф А Н Т А С Т И К А +П Р И К Л Ю Ч Е Н И Я + Ф Э Н Т А З И\Клондайк\KLONDIKE_2014_S01_RUS[Alex_Film_TV]_DD5.1_x264_Nikolai.Baranov_WEB-DLRip-AVC_(1080p)\KLONDIKE_2014_S01E01-E02_Part_On_RUS[Alex_Film_TV]_DD5.1_x264_Nikolai.Baranov_WEB-DLRip-AVC_1080p.mp4
Формат : MPEG-4
Профиль формата : Base Media
Идентификатор кодека : isom
Размер файла : 4.14 GiB
Продолжительность : 1h 35mn
Режим общего битрейта : Variable
Общий поток : 6 174 Kbps
Название фильма : Klondike 2014 Part One @ AlexFilm
Дата кодирования : UTC 2014-02-05 16:34:13
Дата пометки : UTC 2014-02-05 16:34:13
Программа кодирования : Lavf51.12.1

Video
Идентификатор : 1
Формат : AVC
Формат/Информация : Advanced Video Codec
Профиль формата : Baseline@L4.0
Параметр CABAC формата : No
Параметр ReFrames формата : 1 frame
Параметр GOP формата : M=1, N=12
Идентификатор кодека : avc1
Идентификатор кодека/Информация : Advanced Video Coding
Продолжительность : 1h 35mn
Вид битрейта : Variable
Битрейт : 5 712 Kbps
Максимальный битрейт : 8 250 Kbps
Ширина : 1 920 pixels
Высота : 1 080 pixels
Соотношение сторон : 16:9
Режим частоты кадров : Constant
Частота кадров : 25.000 fps
Частота кадров в оригинале : 24.000 fps
Цветовое пространство : YUV
Субдискретизация насыщенности : 4:2:0
Битовая глубина : 8 bits
Тип развёртки : Progressive
Бит/(Пиксели*Кадры) : 0.110
Размер потока : 3.83 GiB (93%)
Язык : English
Дата кодирования : UTC 2014-02-05 16:34:13
Дата пометки : UTC 2014-02-05 16:34:13

Audio
Идентификатор : 2
Формат : AAC
Формат/Информация : Advanced Audio Codec
Профиль формата : LC
Идентификатор кодека : 40
Продолжительность : 1h 35mn
Вид битрейта : Variable
Битрейт : 456 Kbps
Каналы : 6 channels
Расположение каналов : Front: L C R, Side: L R, LFE
Частота : 48.0 KHz
Метод сжатия : Lossy
Размер потока : 313 MiB (7%)
Язык : Russian
Дата кодирования : UTC 2014-02-05 16:34:13
Дата пометки : UTC 2014-02-05 16:34:13








1. Открыть торрент
2. Снять галки с тех файлов торрента, которые мы не хотим закачивать. Оставляем только на нужных нам файлах (файле).
3. Нажать О.К.

В клиенте utorrent

Инструкция

1) Открыть торрент


2) Снять галки с тех файлов торрента, которые мы не хотим закачивать:

* либо вручную, снимая с каждого файла галку( скрин №1)
* либо, нажав кнопку "Снять метки (Select None)", сняв сразу со всех файлов(скрин №2)
№1

№2

Оставляем только на нужных нам файлах (файле).

3)Нажать О.К




Внимание!!! 26.02. 2014. РАЗДАЧА ОБНОВЛЕНА.ФИНАЛ.ОБНОВИТЕ ТОРЕНТ ФАЙЛ.ПРИЯТНОГО ПРОСМОТРА .

Релиз от: Nikolai.Baranov










Скачать Клондайк.Klondike.(сезон.1.серия.1-6.из.6).(Саймон.Селлан.Джоунс).[2014.драма.приключения.вестерн.WEB-DLRip-AVC.1080p].[DD5.1].[MVO].[AlexFilm].torrent без регистрации
Золото ЗОЛОТАЯ РАЗДАЧА! СКАЧАННОЕ НЕ ЗАСЧИТЫВАЕТСЯ! Золото
Дата: Зарегистрирован   [ Тип: внутренний ] Как тут cкачать?
MAGNET ссылка
MAGNET ссылка


Скачать .torrent

30 KB

Статус: проверено DHT
Скачан: торрент - 185 раз, раздача полностью - 176 раз
Размер: 11,86 GB
Оценка:  5 (Голосов: 1)
Поблагодарили: 5
Поделиться ссылкой на эту раздачу с друзьями:
В контактеFacebookОдноклассникиTwitterLivejournalМой МирLiveinternet
 

 
Показать сообщения:    


Вы не можете начинать темы
Вы не можете отвечать на сообщения
Вы не можете редактировать свои сообщения
Вы не можете удалять свои сообщения
Вы не можете голосовать в опросах
Вы не можете прикреплять файлы к сообщениям
Вы можете скачивать файлы