Loading...
Error

Скачать Граница / The Border (Тони Ричардсон) [1982, драма, криминал, DVDRip-AVC] [DVO]+[Sub] торрент без регистрации

 
Статистика раздачи
Размер:  1,51 GB   |    Скачан:  5308 раз
Сидов:  1  [  0 KB/s  ]  
 
Автор Сообщение

Marsianka

[] 

Информация о фильме
Название: Граница
Оригинальное название: The Border
Год выхода: 1982
Жанр: драма, криминал
Режиссер: Тони Ричардсон
В ролях: Джек Николсон (Jack Nicholson), Харви Кейтель (Harvey Keitel), Валери Перрин (Valerie Perrine), Уоррен Оутс (Warren Oates)

О фильме:
На границе с Мексикой процветает коррупция и несправедливость. Бандиты похищают мексиканских младенцев, чтобы потом продавать их в бездетные американские семьи. Все коллеги Смита преспокойно "закрывают это глаза", но Чарли - не из таких, а посему он решает во чтобы то ни стало восстановить справедливость!



Страна: США
Студия: Efer Productions, RKO Pictures, Universal Pictures
Продолжительность: 01:43:57.160
Перевод: Профессиональный (двухголосый закадровый) R5 Universal

Исходник R5 DVD9 Universal
Общее
Уникальный идентификатор : 218946021859485967798174506138924147403 (0xA4B7784FFA5230B3919CD0341ACAE2CB)
Полное имя : D:FilmsGranitsa.1982.DVDRip-AVC.mkv
Формат : Matroska
Версия формата : Version 4 / Version 2
Размер файла : 1,51 Гбайт
Продолжительность : 1 ч. 43 м.
Общий поток : 2084 Кбит/сек
Дата кодирования : UTC 2014-02-22 13:47:23
Программа кодирования : mkvmerge v6.7.0 ('Back to the Ground') 64bit built on Jan 8 2014 15:10:52
Библиотека кодирования : libebml v1.3.0 + libmatroska v1.4.1

Видео
Идентификатор : 1
Формат : AVC
Формат/Информация : Advanced Video Codec
Профиль формата : High@L4.1
Параметр CABAC формата : Да
Параметр ReFrames формата : 16 кадров
Идентификатор кодека : V_MPEG4/ISO/AVC
Продолжительность : 1 ч. 43 м.
Битрейт : 1697 Кбит/сек
Ширина : 720 пикселей
Высота : 432 пикселя
Соотношение сторон : 2,35:1
Соотношение сторон в оригинале : 2,35:1
Режим частоты кадров : Постоянный
Частота кадров : 25,000 кадров/сек
Цветовое пространство : YUV
Субдискретизация насыщенности : 4:2:0
Битовая глубина : 8 бит
Тип развёртки : Прогрессивная
Бит/(Пиксели*Кадры) : 0.218
Размер потока : 1,20 Гбайт (80%)
Библиотека кодирования : x264 core 138 r2358 9e941d1
Настройки программы : cabac=1 / ref=16 / deblock=1:0:0 / analyse=0x3:0x133 / me=umh / subme=10 / psy=1 / psy_rd=1.10:0.10 / mixed_ref=1 / me_range=32 / chroma_me=1 / trellis=2 / 8x8dct=1 / cqm=0 / deadzone=21,11 / fast_pskip=0 / chroma_qp_offset=-6 / threads=8 / lookahead_threads=2 / sliced_threads=0 / nr=0 / decimate=0 / interlaced=0 / bluray_compat=0 / constrained_intra=0 / bframes=12 / b_pyramid=2 / b_adapt=2 / b_bias=0 / direct=3 / weightb=1 / open_gop=0 / weightp=2 / keyint=250 / keyint_min=25 / scenecut=60 / intra_refresh=0 / rc_lookahead=60 / rc=2pass / mbtree=0 / bitrate=1697 / ratetol=1.0 / qcomp=0.60 / qpmin=0 / qpmax=69 / qpstep=4 / cplxblur=20.0 / qblur=0.5 / vbv_maxrate=50000 / vbv_bufsize=62500 / nal_hrd=none / ip_ratio=1.40 / pb_ratio=1.30 / aq=2:1.00
Default : Нет
Forced : Нет
Коэффициенты матрицы : BT.601

Аудио #1
Идентификатор : 2
Формат : AC-3
Формат/Информация : Audio Coding 3
Расширение режима : CM (complete main)
Параметр Endianness формата : Big
Идентификатор кодека : A_AC3
Продолжительность : 1 ч. 43 м.
Вид битрейта : Постоянный
Битрейт : 192 Кбит/сек
Каналы : 2 канала
Расположение каналов : Front: L R
Частота : 48,0 КГц
Битовая глубина : 16 бит
Метод сжатия : С потерями
Размер потока : 143 Мбайт (9%)
Язык : English
Default : Нет
Forced : Нет

Аудио #2
Идентификатор : 3
Формат : AC-3
Формат/Информация : Audio Coding 3
Расширение режима : CM (complete main)
Параметр Endianness формата : Big
Идентификатор кодека : A_AC3
Продолжительность : 1 ч. 43 м.
Вид битрейта : Постоянный
Битрейт : 192 Кбит/сек
Каналы : 2 канала
Расположение каналов : Front: L R
Частота : 48,0 КГц
Битовая глубина : 16 бит
Метод сжатия : С потерями
Размер потока : 143 Мбайт (9%)
Язык : Russian
Default : Да
Forced : Нет

Текст
Идентификатор : 4
Формат : VobSub
Режим смешивания : zlib
Идентификатор кодека : S_VOBSUB
Идентификатор кодека/Информация : The same subtitle format used on DVDs
Язык : English
Default : Нет
Forced : Нет

Меню
00:00:00.000 : en:Chapter 01
00:05:55.440 : en:Chapter 02
00:12:22.560 : en:Chapter 03
00:19:26.520 : en:Chapter 04
00:25:57.120 : en:Chapter 05
00:32:34.080 : en:Chapter 06
00:41:00.840 : en:Chapter 07
00:45:28.680 : en:Chapter 08
00:51:42.840 : en:Chapter 09
00:59:28.920 : en:Chapter 10
01:04:25.920 : en:Chapter 11
01:10:51.600 : en:Chapter 12
01:18:22.920 : en:Chapter 13
01:26:38.280 : en:Chapter 14
01:32:25.200 : en:Chapter 15
01:39:02.760 : en:Chapter 16
01:43:56.680 : en:Chapter 17
Файл
Кодек: h.264
Качество: DVDRip-AVC
Видео: 720x432 (2.35:1) @ 1014x432 (анаморф), 25.000 fps, AVC, ~1697 Kbps, 0.218 bits/pixel
Звук:
Английский, 48.0 KHz, AC3, 2 ch, 192 Kbps
Русский, 48.0 KHz, AC3, 2 ch, 192 Kbps
Субтитры: Английские, VobSub Релиз от: Temperest



Скачать Граница.The.Border.(Тони.Ричардсон).[1982.драма.криминал.DVDRip-AVC].[DVO]+[Sub].torrent без регистрации
Золото ЗОЛОТАЯ РАЗДАЧА! СКАЧАННОЕ НЕ ЗАСЧИТЫВАЕТСЯ! Золото
Дата: Зарегистрирован   [ Тип: внутренний ] Как тут cкачать?
MAGNET ссылка
MAGNET ссылка


Скачать .torrent

16 KB

Статус: проверено DHT
Скачан: торрент - 5308 раз, раздача полностью - 22 раз
Размер: 1,51 GB
Оценка:  - (Голосов: 0)
Поблагодарили: 1
Поделиться ссылкой на эту раздачу с друзьями:
В контактеFacebookОдноклассникиTwitterLivejournalМой МирLiveinternet
 

 
Показать сообщения:    


Вы не можете начинать темы
Вы не можете отвечать на сообщения
Вы не можете редактировать свои сообщения
Вы не можете удалять свои сообщения
Вы не можете голосовать в опросах
Вы не можете прикреплять файлы к сообщениям
Вы можете скачивать файлы