Loading...
Error

Скачать Ниндзя-убийца / Ninja Assassin (Джеймс МакТиг) [2009, боевик, триллер, драма, криминал, BDRip-AVC] [Dub]+[AVO]x2+[Sub]x4 торрент без регистрации

 
Статистика раздачи
Размер:  2,4 GB   |    Скачан:  113 раз
Сидов:  1  [  0 KB/s  ]  
 
Автор Сообщение

Marsianka

[] 

Информация о фильме
Название: Ниндзя-убийца
Оригинальное название: Ninja Assassin
Год выхода: 2009
Жанр: боевик, триллер, драма, криминал
Режиссер: Джеймс МакТиг
В ролях: Санг Кенг, Рэндолл Дак Ким, Джонатан Чан-Пинсли, Сё Косуги, Юки Ивамото, Илл-Юнг Ким, Бен Майлз, Наоми Харрис, Би Рейн, Стивен Маркус, Лин Дэн Пэм

О фильме:
Рейзо один из самых опасных убийц-ниндзя в мире. Еще ребенком его превратили в профессионального убийцу члены клана «Озуну» секретной организации, чье существование до сих пор считалось выдумкой. Рейзо, преследуемый муками совести из-за беспощадного убийства своего друга кланом Озуну, сбегает от своих. Но тайные кланы не отпускают «своих» просто так



Страна: США, Германия
Студия: Warner Bros., Legendary Pictures, Dark Castle Entertainment, Silver Pictures Anarchos Productions, Rocklock Films, F¬nfte Babelsberg Film, Deutsche Filmf¦rderfonds, Medienboard Berlin-Brandenburg
Продолжительность: 01:38:41
Перевод: Дублированный, авторский (одноголосый закадровый)

Файл
Кодек: h.264
Качество: BDRip-AVC
Видео: 1948 Кбит/с, 1024х436, 23.976 кадр/с
1: Русский (АС3, 6 ch, 384 Кбит/с) Дублированный
2: Русский (АС3, 6 ch, 384 Кбит/с) Авторский одноголосый [Сергей Визгунов]
3: Русский (АС3, 6 ch, 384 Кбит/с) Авторский одноголосый [Михаил Чадов, ненормативная лексика]
4: Английский (АС3, 6 ch, 384 Кбит/с)

Субтитры:
1: Русские [форсированные]
2: Русские [полные]
3: Украинские [полные]
4: Английские [полные]

---------------------------------------------------------------------
x264 [info]: frame I:1254 Avg QP:14.57 size: 86798
x264 [info]: frame P:37504 Avg QP:18.45 size: 20649
x264 [info]: frame B:103203 Avg QP:20.66 size: 5410
---------------------------------------------------------------------

Полное имя : Ninja.Assassin.2009.x264.BDRip.(AVC).0ptimus.mkv
Формат : Matroska
Версия формата : Version 4 / Version 2
Размер файла : 2,40 Гбайт
Продолжительность : 1 ч. 38 м.
Общий поток : 3486 Кбит/сек
Название фильма : Ниндзя-убийца | Ninja Assassin [2009] -=BDRip (AVC) by 0ptimus=-
Дата кодирования : UTC 2013-09-21 09:55:48
Программа кодирования : mkvmerge v6.1.0 ('Old Devil') built on Mar 2 2013 14:32:37
Библиотека кодирования : libebml v1.3.0 + libmatroska v1.4.0

Видео
Идентификатор : 1
Формат : AVC
Формат/Информация : Advanced Video Codec
Профиль формата : High@L4.1
Параметр CABAC формата : Да
Параметр ReFrames формата : 9 кадров
Идентификатор кодека : V_MPEG4/ISO/AVC
Продолжительность : 1 ч. 38 м.
Битрейт : 1948 Кбит/сек
Ширина : 1024 пикселя
Высота : 436 пикселей
Соотношение сторон : 2,35:1
Частота кадров : 23,976 кадра/сек
Цветовое пространство : YUV
Субдискретизация насыщенности : 4:2:0
Битовая глубина : 8 бит
Тип развёртки : Прогрессивная
Бит/(Пиксели*Кадры) : 0.182
Размер потока : 1,30 Гбайт (54%)
Заголовок : Rip by 0ptimus
Библиотека кодирования : x264 core 133 r2334 a3ac64b
Настройки программы : cabac=1 / ref=9 / deblock=1:-3:-3 / analyse=0x3:0x113 / me=umh / subme=11 / psy=1 / psy_rd=1.00:0.20 / mixed_ref=1 / me_range=48 / chroma_me=1 / trellis=2 / 8x8dct=1 / cqm=0 / deadzone=21,11 / fast_pskip=0 / chroma_qp_offset=-3 / threads=4 / lookahead_threads=1 / sliced_threads=0 / nr=0 / decimate=0 / interlaced=0 / bluray_compat=0 / constrained_intra=0 / bframes=11 / b_pyramid=2 / b_adapt=2 / b_bias=0 / direct=3 / weightb=1 / open_gop=0 / weightp=2 / keyint=240 / keyint_min=23 / scenecut=40 / intra_refresh=0 / rc_lookahead=40 / rc=2pass / mbtree=0 / bitrate=1948 / ratetol=1.0 / qcomp=0.60 / qpmin=0 / qpmax=69 / qpstep=4 / cplxblur=20.0 / qblur=0.5 / vbv_maxrate=50000 / vbv_bufsize=50000 / nal_hrd=none / ip_ratio=1.40 / pb_ratio=1.30 / aq=1:1.00
Язык : English

Аудио #1
Идентификатор : 2
Формат : AC-3
Формат/Информация : Audio Coding 3
Расширение режима : CM (complete main)
Идентификатор кодека : A_AC3
Продолжительность : 1 ч. 38 м.
Вид битрейта : Постоянный
Битрейт : 384 Кбит/сек
Каналы : 6 каналов
Расположение каналов : Front: L C R, Side: L R, LFE
Частота : 48,0 КГц
Битовая глубина : 16 бит
Метод сжатия : С потерями
Размер потока : 271 Мбайт (11%)
Заголовок : Дублированный AC3 5.1 @ 384 kbps
Язык : Russian

Аудио #2
Идентификатор : 3
Формат : AC-3
Формат/Информация : Audio Coding 3
Расширение режима : CM (complete main)
Идентификатор кодека : A_AC3
Продолжительность : 1 ч. 38 м.
Вид битрейта : Постоянный
Битрейт : 384 Кбит/сек
Каналы : 6 каналов
Расположение каналов : Front: L C R, Side: L R, LFE
Частота : 48,0 КГц
Битовая глубина : 16 бит
Метод сжатия : С потерями
Размер потока : 271 Мбайт (11%)
Заголовок : Авторский [Сергей Визгунов] AC3 5.1 @ 384 kbps
Язык : Russian

Аудио #3
Идентификатор : 4
Формат : AC-3
Формат/Информация : Audio Coding 3
Расширение режима : CM (complete main)
Идентификатор кодека : A_AC3
Продолжительность : 1 ч. 38 м.
Вид битрейта : Постоянный
Битрейт : 384 Кбит/сек
Каналы : 6 каналов
Расположение каналов : Front: L C R, Side: L R, LFE
Частота : 48,0 КГц
Битовая глубина : 16 бит
Метод сжатия : С потерями
Размер потока : 271 Мбайт (11%)
Заголовок : Авторский [Михаил Чадов] AC3 5.1 @ 384 kbps
Язык : Russian

Аудио #4
Идентификатор : 5
Формат : AC-3
Формат/Информация : Audio Coding 3
Расширение режима : CM (complete main)
Идентификатор кодека : A_AC3
Продолжительность : 1 ч. 38 м.
Вид битрейта : Постоянный
Битрейт : 384 Кбит/сек
Каналы : 6 каналов
Расположение каналов : Front: L C R, Side: L R, LFE
Частота : 48,0 КГц
Битовая глубина : 16 бит
Метод сжатия : С потерями
Размер потока : 271 Мбайт (11%)
Заголовок : AC3 5.1 @ 384 kbps
Язык : English

Текст #1
Идентификатор : 6
Формат : UTF-8
Идентификатор кодека : S_TEXT/UTF8
Идентификатор кодека/Информация : UTF-8 Plain Text
Заголовок : Форсированные
Язык : Russian

Текст #2
Идентификатор : 7
Формат : UTF-8
Идентификатор кодека : S_TEXT/UTF8
Идентификатор кодека/Информация : UTF-8 Plain Text
Язык : Russian

Текст #3
Идентификатор : 8
Формат : UTF-8
Идентификатор кодека : S_TEXT/UTF8
Идентификатор кодека/Информация : UTF-8 Plain Text
Язык : Ukrainian

Текст #4
Идентификатор : 9
Формат : UTF-8
Идентификатор кодека : S_TEXT/UTF8
Идентификатор кодека/Информация : UTF-8 Plain Text
Заголовок : SDH
Язык : English

Меню
00:00:00.000 : en:Laughter Drowned in Blood
00:06:19.379 : en:Stained Laundry
00:09:46.169 : en:Way of the Ninja
00:13:52.749 : en:Painful Path
00:17:29.966 : en:Who Are You?
00:21:43.344 : en:Survive the Night
00:24:27.091 : en:Listening and Seeing
00:31:07.991 : en:Kiriko's Choice
00:37:05.098 : en:Lights Out
00:41:02.669 : en:Throught the Heart
00:44:52.940 : en:Watch Man
00:48:21.273 : en:Fall From Grace
00:51:47.980 : en:Into a Trap
00:54:21.216 : en:Smell of a Setup
00:57:30.322 : en:Ninja Swarm
01:00:43.932 : en:Brothers in Battle
01:04:37.749 : en:Car Trouble
01:07:00.433 : en:Traffic Jam
01:10:07.036 : en:Part of Each Other
01:14:07.443 : en:Tonight We Avenge
01:18:59.652 : en:Like Old Times
01:22:01.250 : en:Not My Family
01:25:09.146 : en:Final Cut
01:28:02.944 : en:Where the Heart Is
01:30:47.942 : en:End Credits
Релиз от:



Скачать Ниндзя-убийца.Ninja.Assassin.(Джеймс.МакТиг).[2009.боевик.триллер.драма.криминал.BDRip-AVC].[Dub]+[AVO]x2+[Sub]x4.torrent без регистрации
Золото ЗОЛОТАЯ РАЗДАЧА! СКАЧАННОЕ НЕ ЗАСЧИТЫВАЕТСЯ! Золото
Дата: Зарегистрирован   [ Тип: внутренний ] Как тут cкачать?
MAGNET ссылка
MAGNET ссылка


Скачать .torrent

25 KB

Статус: проверено DHT
Скачан: торрент - 113 раз, раздача полностью - 17 раз
Размер: 2,4 GB
Оценка:  - (Голосов: 0)
Поблагодарили: 0
Поделиться ссылкой на эту раздачу с друзьями:
В контактеFacebookОдноклассникиTwitterLivejournalМой МирLiveinternet
 

 
Показать сообщения:    


Вы не можете начинать темы
Вы не можете отвечать на сообщения
Вы не можете редактировать свои сообщения
Вы не можете удалять свои сообщения
Вы не можете голосовать в опросах
Вы не можете прикреплять файлы к сообщениям
Вы можете скачивать файлы