Loading...
Error

Скачать Первый ребенок страны / Сорванец / First Kid (Дэвид Микки Эванс) [1996, комедия, DVDRip] [AVO]+[Sub]x2 торрент без регистрации

 
Статистика раздачи
Размер:  1,46 GB   |    Скачан:  121 раз

Полного источника не было: 21 минута

 
Автор Сообщение

Marsianka

[] 

«He's young. He's wild. He's fun. And he's the one protecting the president's son»


Страна: США
Киностудия: Caravan Pictures, Walt Disney Pictures
Год выпуска: 1996
Жанр: комедия
Продолжительность: 01:36:40

Перевод: Авторский (одноголосый) Антон Алексеев
Субтитры: русский, английский
Оргинальная аудиодорожка: нет

Режиссер: Дэвид Микки Эванс / David M. Evans

В ролях: Синбад /Sinbad/, Робер Гийом, Тимоти Басфилд /Timothy Busfield/, Брок Пирс /Brock Pierce/, Джеймс Нотон /James Naughton/, Арт Ла Флер /Art La Fleur/, Зэкери Тай Брайан /Zachery Ty Bryan/, Билл Коббс /Bill Cobbs/, Лиза Аайкхорн, Блэйк Бойд, Эрин Уиллиби, Майкл Крэуик, Фон Рид, Томас Арана /Tomas Arana/

Описание: Чернокожий телохранитель Сэм Симмс получает сверхважное задание. Он назначен ответственным за жизнь первого ребенка страны сына президента.
Большой, нелепый, но добродушнейший охранник, обожающий «неуставные» цветастые галстуки, и с виду заносчивый, но несчастный из-за своего одиночества мальчишка мало-помалу становятся друзьями. Сэм учит сына президента боксировать и помогает ему завести друзей среди ровесников



Качество видео: DVDRip, исходник DVD5 R2: El Hijo del presidente (Испания, Барселона, спасибо Ibraghim)
Формат видео: AVI

Видео: 704x384 (1.85:1), 23.976 fps, XviD ~ 1764 kbps avg, 0.261 bit/pixel
Аудио: Русский, 48 kHz, AC3, 6 ch, 384.00 kbps Constant (А.Алексеев)
Формат субтитров: SoftSub (srt)

Раздача от:

Общее
Полное имя : Pervyi.rebenok.strany.1996.A.DVDRip.1.46GB_[New-Team]_by_avprohPervyi.rebenok.strany.1996.A.DVDRip.1.46GB_[New-Team]_by_avproh.avi
Формат : AVI
Формат/Информация : Audio Video Interleave
Размер файла : 1,46 Гбайт
Продолжительность : 1 ч. 36 м.
Общий поток : 2157 Кбит/сек
Программа кодирования : VirtualDubMod 1.5.10.3 | www.virtualdub-fr.org || (build 2550/release)
Библиотека кодирования : VirtualDubMod build 2550/release

Видео
Идентификатор : 0
Формат : MPEG-4 Visual
Профиль формата : Advanced Simple@L5
Параметр BVOP формата : 1
Параметр QPel формата : Нет
Параметр GMC формата : Без точки перехода
Параметр матрицы формата : Выборочная
Идентификатор кодека : XVID
Идентификатор кодека/Подсказка : XviD
Продолжительность : 1 ч. 36 м.
Битрейт : 1764 Кбит/сек
Ширина : 704 пикселя
Высота : 384 пикселя
Соотношение сторон : 1,85:1
Частота кадров : 25,000 кадров/сек
Цветовое пространство : YUV
Субдискретизация насыщенности : 4:2:0
Битовая глубина : 8 бит
Тип развёртки : Прогрессивная
Метод сжатия : С потерями
Бит/(Пиксели*Кадры) : 0.261
Размер потока : 1,19 Гбайт (82%)
Библиотека кодирования : XviD 73

Аудио
Идентификатор : 1
Формат : AC-3
Формат/Информация : Audio Coding 3
Расширение режима : CM (complete main)
Параметр Endianness формата : Big
Идентификатор кодека : 2000
Продолжительность : 1 ч. 36 м.
Вид битрейта : Постоянный
Битрейт : 384 Кбит/сек
Каналы : 6 каналов
Расположение каналов : Front: L C R, Side: L R, LFE
Частота : 48,0 КГц
Битовая глубина : 16 бит
Метод сжатия : С потерями
Размер потока : 266 Мбайт (18%)
Выравнивание : Разделение по промежуткам
Продолжительность промежутка : 40 мс. (1,00 видеокадр)
Время предзагрузки промежутка : 500 мс.



Скачать Первый.ребенок.страны.Сорванец.First.Kid.(Дэвид.Микки.Эванс).[1996.комедия.DVDRip].[AVO]+[Sub]x2.torrent без регистрации
Золото ЗОЛОТАЯ РАЗДАЧА! СКАЧАННОЕ НЕ ЗАСЧИТЫВАЕТСЯ! Золото
Дата: Зарегистрирован   [ Тип: внутренний ] Как тут cкачать?
MAGNET ссылка
MAGNET ссылка


Скачать .torrent

16 KB

Статус: проверено DHT
Скачан: торрент - 121 раз, раздача полностью - 0 раз
Размер: 1,46 GB
Оценка:  - (Голосов: 0)
Поблагодарили: 0
Поделиться ссылкой на эту раздачу с друзьями:
В контактеFacebookОдноклассникиTwitterLivejournalМой МирLiveinternet
 

 
Показать сообщения:    


Вы не можете начинать темы
Вы не можете отвечать на сообщения
Вы не можете редактировать свои сообщения
Вы не можете удалять свои сообщения
Вы не можете голосовать в опросах
Вы не можете прикреплять файлы к сообщениям
Вы можете скачивать файлы