Loading...
Error

Скачать Первый ребенок страны / Сорванец / First Kid (Дэвид Микки Эванс) [1996, комедия, DVDRip] [MVO] торрент без регистрации

 
Статистика раздачи
Размер:  745 MB   |    Скачан:  95 раз
Сидов:  1  [  0 KB/s  ]  
 
Автор Сообщение

Marsianka

[] 

Год выпуска: 1996
Страна: США
Киностудия: Caravan Pictures, Walt Disney Pictures
Жанр: комедия
Продолжительность: 01:36:41

Перевод: Профессиональный (многоголосый закадровый)
Субтитры: нет
Оригинальная дорожка: нет

Режиссер: Дэвид Микки Эванс / David M. Evans

В ролях: Синбад /Sinbad/, Робер Гийом, Тимоти Басфилд /Timothy Busfield/, Брок Пирс /Brock Pierce/, Джеймс Нотон /James Naughton/, Арт Ла Флер /Art La Fleur/, Зэкери Тай Брайан /Zachery Ty Bryan/, Билл Коббс /Bill Cobbs/, Лиза Аайкхорн, Блэйк Бойд, Эрин Уиллиби, Майкл Крэуик, Фон Рид, Томас Арана /Tomas Arana/

Описание: Чернокожий телохранитель Сэм Симмс получает сверх важное задание. он назначен ответственным за жизнь первого ребенка страны сына президента. Большой, нелепый, но добродушнейший охранник, обожающий «неуставные» цветастые галстуки, и с виду заносчивый, но несчастный из-за своего одиночества мальчишка мало-помалу становятся друзьями. Сэм учит сына президента боксировать и помогает ему завести друзей среди ровесников

Тип релиза: DVDRip
Контейнер: AVI

Видео: 704x384 (16:9), 25.0 fps, XviD MPEG-4 ~ 939 kbps avg, 0.139 bit/pixel
Аудио: 48 kHz, MP3, 2 ch, 128.00 kbps Constant
Формат субтитров: SoftSub (srt)

Общее
Полное имя : Pervyj.rebenok.strany.1996.745.avi
Формат : AVI
Формат/Информация : Audio Video Interleave
Размер файла : 745 Мбайт
Продолжительность : 1 ч. 36 м.
Общий поток : 1077 Кбит/сек
Программа кодирования : VirtualDubModRus 1.5.10.2 (build 2542/release)
Библиотека кодирования : VirtualDubMod build 2542/release

Видео
Идентификатор : 0
Формат : MPEG-4 Visual
Профиль формата : Advanced Simple@L5
Параметр BVOP формата : 1
Параметр QPel формата : Нет
Параметр GMC формата : Без точки перехода
Параметр матрицы формата : Выборочная
Идентификатор кодека : XVID
Идентификатор кодека/Подсказка : XviD
Продолжительность : 1 ч. 36 м.
Битрейт : 939 Кбит/сек
Ширина : 704 пикселя
Высота : 384 пикселя
Соотношение сторон : 16:9
Частота кадров : 25,000 кадров/сек
Цветовое пространство : YUV
Субдискретизация насыщенности : 4:2:0
Битовая глубина : 8 бит
Тип развёртки : Прогрессивная
Метод сжатия : С потерями
Бит/(Пиксели*Кадры) : 0.139
Размер потока : 650 Мбайт (87%)
Библиотека кодирования : XviD 1.2.1 (UTC 2008-12-04)

Аудио
Идентификатор : 1
Формат : MPEG Audio
Версия формата : Version 1
Профиль формата : Layer 3
Режим : Joint stereo
Расширение режима : MS Stereo
Идентификатор кодека : 55
Идентификатор кодека/Подсказка : MP3
Продолжительность : 1 ч. 36 м.
Вид битрейта : Постоянный
Битрейт : 128 Кбит/сек
Каналы : 2 канала
Частота : 48,0 КГц
Метод сжатия : С потерями
Размер потока : 88,5 Мбайт (12%)
Выравнивание : Соединение по промежуткам
Продолжительность промежутка : 40 мс. (1,00 видеокадр)
Время предзагрузки промежутка : 504 мс.
Библиотека кодирования : LAME3.99 (alpha



Скачать Первый.ребенок.страны.Сорванец.First.Kid.(Дэвид.Микки.Эванс).[1996.комедия.DVDRip].[MVO].torrent без регистрации
Золото ЗОЛОТАЯ РАЗДАЧА! СКАЧАННОЕ НЕ ЗАСЧИТЫВАЕТСЯ! Золото
Дата: Зарегистрирован   [ Тип: внутренний ] Как тут cкачать?
MAGNET ссылка
MAGNET ссылка


Скачать .torrent

15 KB

Статус: проверено DHT
Скачан: торрент - 95 раз, раздача полностью - 0 раз
Размер: 745 MB
Оценка:  - (Голосов: 0)
Поблагодарили: 0
Поделиться ссылкой на эту раздачу с друзьями:
В контактеFacebookОдноклассникиTwitterLivejournalМой МирLiveinternet
 

 
Показать сообщения:    


Вы не можете начинать темы
Вы не можете отвечать на сообщения
Вы не можете редактировать свои сообщения
Вы не можете удалять свои сообщения
Вы не можете голосовать в опросах
Вы не можете прикреплять файлы к сообщениям
Вы можете скачивать файлы