Loading...
Error

Скачать Интерны [10x1-20 (181-200) из 24] (Максим Пежемский, Радда Новикова) [2013, комедия, ситком, DVB-AVC] торрент без регистрации

Статистика раздачи
Размер:  7,48 GB   |    Скачан:  682 раза

Полного источника не было: 31 минута

 
 
 
Автор Сообщение

МихаНЕзатор

[] 

Интерны


Год выпуска: 2013
Производство: Comedi Club Production
Жанр: Ситком
Продолжительность: ~ 24 мин серия
Режиссёр: Максим Пежемский

В ролях: Иван Охлобыстин, Кристина Асмус, Илья Глинников, Александр Ильин-мл., Дмитрий Шаракоис, Один Ланд Байрон,
Вадим Демчог, Светлана Пермякова, Светлана Камынина, Мария Пирогова, Елена Суркова, Татьяна Лянник, Татьяна Мухина

Описание: На протяжении вот уже нескольких сезонов заведующий терапевтическим отделением обычной
российской клиники доктор Быков продолжает вдохновенно, изощренно и с юмором издеваться над своими
подопечными – четырьмя начинающими врачами-интернами. Впрочем, издевательства Быкова (сверхурочные дежурства
в наказание за неправильный диагноз – это только самые безобидные из них) преследуют высокую цель – сделать из
недавних студентов настоящих специалистов, да и сами интерны в долгу не остаются, регулярно отвечая Быкову той
же монетой. На ту или иную сторону этого комического противостояния периодически встают другие сотрудники
больницы: главврач Анастасия Кисегач, старшая медсестра Люба, старинный друг Быкова врач-венеролог Купитман.



Качество: DVB
Формат: TS
Видео кодек: AVC
Аудио кодек: MP2
Видео: AVC, 720х576, 4:3, 1880 Kbps, 25 fps, Bits/(Pixel*Frame): 0, 181
Аудио: 192 Kbps, 48.0 KHz, 2 ch

АНОНСЫ ПОПУЛЯРНЫХ РАЗДАЧ


11.03.2014 г. торент обновлён, добавлена 17-20 серия!
G:\СЕРИАЛЫ\Интерны (DVB, AVC) - 10 сезон\Интерны - 181 серия.ts
General #1
ID : 1 (0x1)
Complete name : G:\СЕРИАЛЫ\Интерны (DVB, AVC) - 10 сезон\Интерны - 181 серия.ts
Format : MPEG-TS
File size : 388 MiB
Duration : 24mn 52s
Overall bit rate mode : Variable
Overall bit rate : 2 182 Kbps
Maximum Overall bit rate : 35.5 Mbps
Video #4113
ID : 4113 (0x1011)
Menu ID : 1 (0x1)
Format : AVC
Format/Info : Advanced Video Codec
Format profile : High@L3.0
Format settings, CABAC : Yes
Format settings, ReFrames : 3 frames
Codec ID : 27
Duration : 24mn 53s
Bit rate mode : Variable
Bit rate : 1 880 Kbps
Maximum bit rate : 40.0 Mbps
Width : 720 pixels
Height : 576 pixels
Display aspect ratio : 4:3
Frame rate : 25.000 fps
Standard : Component
Color space : YUV
Chroma subsampling : 4:2:0
Bit depth : 8 bits
Scan type : Interlaced
Scan order : Top Field First
Bits/(Pixel*Frame) : 0.181
Stream size : 335 MiB (86%)
Color primaries : BT.470-6 System B, BT.470-6 System G, BT.601-6 625, BT.1358 625, BT.1700 625 PAL, BT.1700 625 SECAM
Transfer characteristics : BT.470-6 System B, BT.470-6 System G
Matrix coefficients : BT.470-6 System B, BT.470-6 System G, BT.601-6 625, BT.1358 625, BT.1700 625 PAL, BT.1700 625 SECAM, IEC 61966-2-4 601
Audio #4352
ID : 4352 (0x1100)
Menu ID : 1 (0x1)
Format : MPEG Audio
Format version : Version 1
Format profile : Layer 2
Codec ID : 4
Duration : 24mn 52s
Bit rate mode : Constant
Bit rate : 192 Kbps
Channel(s) : 2 channels
Sampling rate : 48.0 KHz
Compression mode : Lossy
Stream size : 34.2 MiB (9%)
Внимание! Раздача ведётся путём добавления новых серий; при каждом добавлении создётся новый торрент. Чтобы начать докачку новой серии, пользователям необходимо сделать следующее:
(1) остановить скачивание,
(2) удалить старый торрент у себя из клиента (старые серии удалять не надо),
(3) скачать новый торрент и запустить его у себя в клиенте вместо старого, при этом указать клиенту путь в старую папку куда и должно происходить скачивание новых серий.
Ваш клиент при этом должен произвести хеширование (проверку) старой папки (если не производит сам - помогите ему сделать это), и будет докачивать только те серии которых у вас ещё нет. Старые серии при этом не удаляются, а продолжают раздаваться!
Eсли вы уже удалили старые серии, то предотвратить повторную закачку старых серий можно, отжав галочку в соответствующих местах при запуске нового торрента.



Скачать Интерны.[10x1-20.(181-200).из.24].(Максим.Пежемский.Радда.Новикова).[2013.комедия.ситком.DVB-AVC].torrent без регистрации
Золото ЗОЛОТАЯ РАЗДАЧА! СКАЧАННОЕ НЕ ЗАСЧИТЫВАЕТСЯ! Золото
Дата: Зарегистрирован   [ Тип: внутренний ] Как тут cкачать?
MAGNET ссылка
MAGNET ссылка


Скачать .torrent

20 KB

Статус: проверено DHT
Скачан: торрент - 682 раз, раздача полностью - 22 раз
Размер: 7,48 GB
Оценка:  5 (Голосов: 2)
Поблагодарили: 3
Поделиться ссылкой на эту раздачу с друзьями:
В контактеFacebookОдноклассникиTwitterLivejournalМой МирLiveinternet
 

 

МихаНЕзатор

[] 

Раздача обновлена
 
Показать сообщения:    


Вы не можете начинать темы
Вы не можете отвечать на сообщения
Вы не можете редактировать свои сообщения
Вы не можете удалять свои сообщения
Вы не можете голосовать в опросах
Вы не можете прикреплять файлы к сообщениям
Вы можете скачивать файлы