Loading...
Error

Скачать Сделано в США / Made in U.S.A. (Жан-Люк Годар) [1966, авторское кино, криминальный детектив, DVDRip-AVC] [DVO]+[Sub]x2 торрент без регистрации

 
Статистика раздачи
Размер:  1,48 GB   |    Скачан:  101 раз
Сидов:  1  [  0 KB/s  ]  
 
Автор Сообщение

Marsianka

[] 

Информация о фильме
Название: Сделано в США
Оригинальное название: Made in U.S.A.
Год выхода: 1966
Жанр: авторское кино, криминальный детектив
Режиссер: Жан-Люк Годар / Jean-Luc Godard
В ролях:
Анна Карина (Anna Karina) ... Paula Nelson
Жан-Пьер Лео (Jean-Pierre Leaud) ... Donald Siegel
Ласло Сабо (Laszlo Szabo) ... Richard Widmark
Марианна Фэйтфулл (Marianne Faithfull) ... играет саму себя
Ив Афонсо (Yves Afonso) ... David Goodis

О фильме:
Журналистка Пола Нельсон приезжает в Атлантик сити (Франция), чтобы найти своего бывшего бойфренда Ричарда Полицера. Вскоре она приходит к выводу, что он убит неизвестным лицом. Будучи уверенной, что он пал жертвой политических интриг, она связывается с бандой гангстеров и начинает писать детективный рассказ, чтобы раскрыть правду...



Страна: Франция
Студия: Anouchka Films, Rome Paris Films, S.E.P.I.C.
Продолжительность: 01:25:05.856
Перевод: Профессиональный (двухголосый, закадровый) (ОРТ)

Файл
Кодек: h.264
Качество: DVDRip-AVC
Видео: 720x368 (2.35:1) @ 854x368 (анаморф), 23.976 fps, AVC, ~1902 Kbps, 0.299 bits/pixel
Французский, 48.0 KHz, AC3, 1 ch, 384 Kbps
Русский, 48.0 KHz, AC3, 1 ch, 192 Kbps
Субтитры:
Английские, VobSub
Русские SRT, UTF-8(на основе голосового перевода)
Общее
Уникальный идентификатор : 228341206631194330872251936931642972211 (0xABC8EAAF65C0CA9E978A279675419833)
Полное имя : D:FilmsSdelano_v_SSHA.1966.DVDRip-AVC.mkv
Формат : Matroska
Версия формата : Version 4 / Version 2
Размер файла : 1,48 Гбайт
Продолжительность : 1 ч. 25 м.
Общий поток : 2482 Кбит/сек
Дата кодирования : UTC 2014-02-23 16:10:12
Программа кодирования : mkvmerge v6.7.0 ('Back to the Ground') 64bit built on Jan 8 2014 15:10:52
Библиотека кодирования : libebml v1.3.0 + libmatroska v1.4.1

Видео
Идентификатор : 1
Формат : AVC
Формат/Информация : Advanced Video Codec
Профиль формата : High@L4.1
Параметр CABAC формата : Да
Параметр ReFrames формата : 16 кадров
Идентификатор кодека : V_MPEG4/ISO/AVC
Продолжительность : 1 ч. 25 м.
Битрейт : 1902 Кбит/сек
Ширина : 720 пикселей
Высота : 368 пикселей
Соотношение сторон : 2,35:1
Соотношение сторон в оригинале : 2,35:1
Режим частоты кадров : Постоянный
Частота кадров : 23,976 кадра/сек
Цветовое пространство : YUV
Субдискретизация насыщенности : 4:2:0
Битовая глубина : 8 бит
Тип развёртки : Прогрессивная
Бит/(Пиксели*Кадры) : 0.299
Размер потока : 1,10 Гбайт (75%)
Библиотека кодирования : x264 core 138 r2358 9e941d1
Настройки программы : cabac=1 / ref=16 / deblock=1:0:0 / analyse=0x3:0x133 / me=umh / subme=10 / psy=1 / psy_rd=1.10:0.10 / mixed_ref=1 / me_range=32 / chroma_me=1 / trellis=2 / 8x8dct=1 / cqm=0 / deadzone=21,11 / fast_pskip=0 / chroma_qp_offset=-6 / threads=8 / lookahead_threads=2 / sliced_threads=0 / nr=0 / decimate=0 / interlaced=0 / bluray_compat=0 / constrained_intra=0 / bframes=12 / b_pyramid=2 / b_adapt=2 / b_bias=0 / direct=3 / weightb=1 / open_gop=0 / weightp=2 / keyint=240 / keyint_min=23 / scenecut=60 / intra_refresh=0 / rc_lookahead=60 / rc=2pass / mbtree=0 / bitrate=1902 / ratetol=1.0 / qcomp=0.60 / qpmin=0 / qpmax=69 / qpstep=4 / cplxblur=20.0 / qblur=0.5 / vbv_maxrate=50000 / vbv_bufsize=62500 / nal_hrd=none / ip_ratio=1.40 / pb_ratio=1.30 / aq=2:1.00
Default : Нет
Forced : Нет
Коэффициенты матрицы : BT.601

Аудио #1
Идентификатор : 2
Формат : AC-3
Формат/Информация : Audio Coding 3
Расширение режима : CM (complete main)
Параметр Endianness формата : Big
Идентификатор кодека : A_AC3
Продолжительность : 1 ч. 25 м.
Вид битрейта : Постоянный
Битрейт : 384 Кбит/сек
Каналы : 1 канал
Расположение каналов : Front: C
Частота : 48,0 КГц
Битовая глубина : 16 бит
Метод сжатия : С потерями
Размер потока : 234 Мбайт (15%)
Язык : French
Default : Нет
Forced : Нет

Аудио #2
Идентификатор : 3
Формат : AC-3
Формат/Информация : Audio Coding 3
Расширение режима : CM (complete main)
Параметр Endianness формата : Big
Идентификатор кодека : A_AC3
Продолжительность : 1 ч. 25 м.
Вид битрейта : Постоянный
Битрейт : 192 Кбит/сек
Каналы : 1 канал
Расположение каналов : Front: C
Частота : 48,0 КГц
Битовая глубина : 16 бит
Метод сжатия : С потерями
Размер потока : 117 Мбайт (8%)
Язык : Russian
Default : Да
Forced : Нет

Текст #1
Идентификатор : 4
Формат : VobSub
Режим смешивания : zlib
Идентификатор кодека : S_VOBSUB
Идентификатор кодека/Информация : The same subtitle format used on DVDs
Язык : English
Default : Нет
Forced : Нет

Текст #2
Идентификатор : 5
Формат : UTF-8
Идентификатор кодека : S_TEXT/UTF8
Идентификатор кодека/Информация : UTF-8 Plain Text
Язык : Russian
Default : Нет
Forced : Нет

Меню
00:00:00.000 : en:Mr. Typhus
00:10:26.601 : en:David Goodis
00:16:13.968 : en:Dr. Korvo
00:19:04.635 : en:Bar
00:26:33.969 : en:"As Tears Go By"
00:30:14.937 : en:Dr. Ludwig
00:34:43.638 : en:Paul Widmark
00:41:39.638 : en:Richard Politzer
00:44:17.638 : en:Inspector Aldrich
00:51:55.938 : en:Questions and answers
00:58:00.000 : en:"They don't want the Left to win"
01:03:21.305 : en:Donald Siegel
01:09:31.972 : en:Left, Year Zero
01:13:33.639 : en:Sadness
01:20:42.973 : en:Philippe Labro
Исходник R1 Criterion Collection + синхр. дорожка с хорошим переводом и изготовлены и синхр. титры на основе данного перевода.
Релиз от: Temperest



Скачать Сделано.в.США.Made.in.U.S.A.(Жан-Люк.Годар).[1966.авторское.кино.криминальный.детектив.DVDRip-AVC].[DVO]+[Sub]x2.torrent без регистрации
Золото ЗОЛОТАЯ РАЗДАЧА! СКАЧАННОЕ НЕ ЗАСЧИТЫВАЕТСЯ! Золото
Дата: Зарегистрирован   [ Тип: внутренний ] Как тут cкачать?
MAGNET ссылка
MAGNET ссылка


Скачать .torrent

15 KB

Статус: проверено DHT
Скачан: торрент - 101 раз, раздача полностью - 41 раз
Размер: 1,48 GB
Оценка:  - (Голосов: 0)
Поблагодарили: 1
Поделиться ссылкой на эту раздачу с друзьями:
В контактеFacebookОдноклассникиTwitterLivejournalМой МирLiveinternet
 

 
Показать сообщения:    


Вы не можете начинать темы
Вы не можете отвечать на сообщения
Вы не можете редактировать свои сообщения
Вы не можете удалять свои сообщения
Вы не можете голосовать в опросах
Вы не можете прикреплять файлы к сообщениям
Вы можете скачивать файлы