Loading...
Error

Скачать Злоумышленники, как всегда, остались неизвестны / I soliti ignoti (Марио Моничелли) [1958, комедия, DVDRip-AVC] [DVO]+[Sub] торрент без регистрации

Статистика раздачи
Размер:  2,09 GB   |    Скачан:  137 раз
Сидов:  1  [  0 KB/s  ]  
 
 
 
Автор Сообщение

Marsianka

[] 

Информация о фильме
Название: Злоумышленники, как всегда, остались неизвестны
Оригинальное название: I soliti ignoti
Год выхода: 1958
Жанр: комедия
Режиссер: Марио Моничелли / Mario Monicelli
В ролях:
Тото /Toto/... Dante Cruciani
Марчелло Мастроянни /Marcello Mastroianni/... Tiberio
Витторио Гассман /Vittorio Gassman/... Peppe il pantera
Ренато Сальватори /Renato Salvatori/... Mario Angeletti
Меммо Каротенуто /Memmo Carotenuto/... Cosimo
Розанна Рори /Rossana Rory/... Norma
Карла Гравина /Carla Gravina/... Nicoletta
Клаудия Кардинале /Claudia Cardinale/... Carmelina
Карло Пизакане /Carlo Pisacane/... Capannelle
Тиберио Мурджа /Tiberio Murgia/... Michele Ferribotte
Джина Ровере /Gina Rovere/... Teresa, wife of Tiberio

О фильме:
Автомобильного воришку Козимо ловят на месте преступления. Ему грозит тюрьма, но у него есть наводка на крупную кражу, и Козимо просит найти человека, который бы за него отсидел. Человека находят. Но Козимо остается за решеткой и руководит кражей оттуда...
Великолепная пародия на детектив.

Кинолента демонстрировалась с большим успехом на фестивалях в Сан-Себастьене, Венеции и Бордигере.


Страна: Италия
Студия: Cinecittђ, Lux Film, Vides Cinematografica
Продолжительность: 01:46:53.728
Перевод: Профессиональный (двухголосый закадровый)

Файл
Кодек: h.264
Качество: DVDRip-AVC
Видео: 624x464 (4:3), 23.976 fps, AVC, ~2480 Kbps, 0.357 bits/pixel
Итальянский, 48.0 KHz, AC3, 1 ch, 192 Kbps
Русский, 48.0 KHz, AC3, 1 ch, 128 Kbps
Субтитры: Английские, VobSub
Общее
Уникальный идентификатор : 239110737412361545906353624605487284801 (0xB3E30D8C35FB6003AC06C87D85704241)
Полное имя : D:FilmsZloumishlenniki_kak_vsegda_ost_neizvestni.1958.DVDRip-AVC.mkv
Формат : Matroska
Версия формата : Version 4 / Version 2
Размер файла : 2,09 Гбайт
Продолжительность : 1 ч. 46 м.
Общий поток : 2804 Кбит/сек
Дата кодирования : UTC 2014-02-23 18:53:38
Программа кодирования : mkvmerge v6.7.0 ('Back to the Ground') 64bit built on Jan 8 2014 15:10:52
Библиотека кодирования : libebml v1.3.0 + libmatroska v1.4.1

Видео
Идентификатор : 1
Формат : AVC
Формат/Информация : Advanced Video Codec
Профиль формата : High@L4.1
Параметр CABAC формата : Да
Параметр ReFrames формата : 16 кадров
Идентификатор кодека : V_MPEG4/ISO/AVC
Продолжительность : 1 ч. 46 м.
Битрейт : 2480 Кбит/сек
Ширина : 624 пикселя
Высота : 464 пикселя
Соотношение сторон : 4:3
Режим частоты кадров : Постоянный
Частота кадров : 23,976 кадра/сек
Цветовое пространство : YUV
Субдискретизация насыщенности : 4:2:0
Битовая глубина : 8 бит
Тип развёртки : Прогрессивная
Бит/(Пиксели*Кадры) : 0.357
Размер потока : 1,81 Гбайт (87%)
Библиотека кодирования : x264 core 138 r2358 9e941d1
Настройки программы : cabac=1 / ref=16 / deblock=1:0:0 / analyse=0x3:0x133 / me=umh / subme=10 / psy=1 / psy_rd=1.10:0.10 / mixed_ref=1 / me_range=32 / chroma_me=1 / trellis=2 / 8x8dct=1 / cqm=0 / deadzone=21,11 / fast_pskip=0 / chroma_qp_offset=-6 / threads=8 / lookahead_threads=1 / sliced_threads=0 / nr=0 / decimate=0 / interlaced=0 / bluray_compat=0 / constrained_intra=0 / bframes=9 / b_pyramid=2 / b_adapt=2 / b_bias=0 / direct=3 / weightb=1 / open_gop=0 / weightp=2 / keyint=240 / keyint_min=23 / scenecut=60 / intra_refresh=0 / rc_lookahead=60 / rc=2pass / mbtree=0 / bitrate=2480 / ratetol=1.0 / qcomp=0.60 / qpmin=0 / qpmax=69 / qpstep=4 / cplxblur=20.0 / qblur=0.5 / vbv_maxrate=50000 / vbv_bufsize=62500 / nal_hrd=none / ip_ratio=1.40 / pb_ratio=1.30 / aq=2:1.00
Default : Нет
Forced : Нет
Коэффициенты матрицы : BT.601

Аудио #1
Идентификатор : 2
Формат : AC-3
Формат/Информация : Audio Coding 3
Расширение режима : CM (complete main)
Параметр Endianness формата : Big
Идентификатор кодека : A_AC3
Продолжительность : 1 ч. 46 м.
Вид битрейта : Постоянный
Битрейт : 192 Кбит/сек
Каналы : 1 канал
Расположение каналов : Front: C
Частота : 48,0 КГц
Битовая глубина : 16 бит
Метод сжатия : С потерями
Размер потока : 147 Мбайт (7%)
Язык : Italian
Default : Нет
Forced : Нет

Аудио #2
Идентификатор : 3
Формат : AC-3
Формат/Информация : Audio Coding 3
Расширение режима : CM (complete main)
Параметр Endianness формата : Big
Идентификатор кодека : A_AC3
Продолжительность : 1 ч. 46 м.
Вид битрейта : Постоянный
Битрейт : 128 Кбит/сек
Каналы : 1 канал
Расположение каналов : Front: C
Частота : 48,0 КГц
Битовая глубина : 16 бит
Метод сжатия : С потерями
Размер потока : 97,9 Мбайт (5%)
Язык : Russian
Default : Да
Forced : Нет

Текст
Идентификатор : 4
Формат : VobSub
Режим смешивания : zlib
Идентификатор кодека : S_VOBSUB
Идентификатор кодека/Информация : The same subtitle format used on DVDs
Язык : English
Default : Нет
Forced : Нет

Меню
00:00:00.000 : en:Chapter 01
00:03:31.801 : en:Chapter 02
00:05:34.168 : en:Chapter 03
00:09:59.835 : en:Chapter 04
00:12:52.835 : en:Chapter 05
00:14:40.002 : en:Chapter 06
00:22:06.469 : en:Chapter 07
00:26:01.903 : en:Chapter 08
00:31:12.470 : en:Chapter 09
00:35:12.304 : en:Chapter 10
00:38:31.838 : en:Chapter 11
00:42:42.338 : en:Chapter 12
00:48:12.471 : en:Chapter 13
00:52:20.172 : en:Chapter 14
00:53:41.806 : en:Chapter 15
01:01:34.973 : en:Chapter 16
01:03:00.140 : en:Chapter 17
01:05:17.008 : en:Chapter 18
01:07:16.675 : en:Chapter 19
01:18:08.175 : en:Chapter 20
01:21:58.842 : en:Chapter 21
01:27:33.176 : en:Chapter 22
01:33:26.110 : en:Chapter 23
01:36:51.811 : en:Chapter 24
01:42:20.011 : en:Chapter 25
01:46:46.845 : en:Chapter 26
Исходник R1 Criterion Collection Релиз от: Temperest



Скачать Злоумышленники.как.всегда.остались.неизвестны.I.soliti.ignoti.(Марио.Моничелли).[1958.комедия.DVDRip-AVC].[DVO]+[Sub].torrent без регистрации
Золото ЗОЛОТАЯ РАЗДАЧА! СКАЧАННОЕ НЕ ЗАСЧИТЫВАЕТСЯ! Золото
Дата: Зарегистрирован   [ Тип: внутренний ] Как тут cкачать?
MAGNET ссылка
MAGNET ссылка


Скачать .torrent

11 KB

Статус: проверено DHT
Скачан: торрент - 137 раз, раздача полностью - 32 раз
Размер: 2,09 GB
Оценка:  - (Голосов: 0)
Поблагодарили: 1
Поделиться ссылкой на эту раздачу с друзьями:
В контактеFacebookОдноклассникиTwitterLivejournalМой МирLiveinternet
 

 
Показать сообщения:    


Вы не можете начинать темы
Вы не можете отвечать на сообщения
Вы не можете редактировать свои сообщения
Вы не можете удалять свои сообщения
Вы не можете голосовать в опросах
Вы не можете прикреплять файлы к сообщениям
Вы можете скачивать файлы