Loading...
Error

Скачать Бойцовский клуб / Fight Club (Дэвид Финчер) [1999, триллер, драма, криминал, детектив, боевик, экранизация, BDRip-AVC] [Dub]+[MVO]x5+[AVO]x7+[VO]+[Sub]x5 торрент без регистрации

 
Статистика раздачи
Размер:  7,59 GB   |    Скачан:  138 раз
Сидов:  1  [  0 KB/s  ]  
 
Автор Сообщение

Marsianka

[] 

Информация о фильме
Название: Бойцовский клуб
Оригинальное название: Fight Club
Год выпуска: 1999
Жанр: триллер, драма, криминал, детектив, боевик, экранизация
Режиссер: Дэвид Финчер
В ролях: Эдвард Нортон, Брэд Питт, Хелена Бонем Картер, Мит Лоаф, Зэк Гренье, Холт МакКэллани, Джаред Лето, Эйон Бэйли, Ричмонд Аркетт, Дэвид Эндрюс, Джордж Магуайр, Эжени Бондюран, Кристина Кэбот

О фильме: Терзаемый хронической бессонницей и отчаянно пытающийся вырваться из мучительно скучной жизни, клерк встречает некоего Тайлера Дардена, харизматического торговца мылом с извращенной философией. Тайлер уверен, что самосовершенствование удел слабых, а саморазрушение единственное, ради чего стоит жить.



Страна: США, Германия
Студия: Atman Entertainment, Fox 2000 Pictures, Knickerbocker Films, Linson Films, Regency Enterprises
Продолжительность: 02:19:08
Перевод: Дублированный, профессиональный многоголосый, авторский одноголосый, любительский одноголосый

Файл
Кодек: x264
Качество: BDRip-AVC
Видео: MPEG-4 AVC, 1852 Кбит/с, 1024x426, 23.976 кадр/с

Семпл
Аудио #1: Русский (AC3, 6 ch, 448 Кбит/с) / Дублированный (Nevafilm)
Аудио #2: Русский (AС3, 2 ch, 192 Кбит/с) / Профессиональный многоголосый (РТР)
Аудио #3: Русский (AC3, 6 ch, 448 Кбит/с) / Профессиональный многоголосый (Позитив-Мультимедиа / Киномания)
Аудио #4: Русский (AC3, 6 ch, 448 Кбит/с) / Профессиональный многоголосый (Позитив-Мультимедиа переиздание)
Аудио #5: Русский (AC3, 6 ch, 448 Кбит/с) / Профессиональный многоголосый (Tycoon)
Аудио #6: Русский (AC3, 6 ch, 448 Кбит/с) / Профессиональный многоголосый (Карусель)
Аудио #7: Русский (AC3, 6 ch, 448 Кбит/с) / Авторский одноголосый (Андрей Гаврилов)
Аудио #8: Русский (AC3, 6 ch, 448 Кбит/с) / Авторский одноголосый (Владимир Завгородний)
Аудио #9: Русский (AC3, 6 ch, 448 Кбит/с) / Авторский одноголосый (Сергей Визгунов)
Аудио #10: Русский (AС3, 6 ch, 384 Кбит/с) / Авторский одноголосый (Диктор CDV)
Аудио #11: Русский (AС3, 6 ch, 384 Кбит/с) / Авторский одноголосый (Антон Алексеев)
Аудио #12: Русский (AС3, 6 ch, 384 Кбит/с) / Авторский одноголосый (Сергей Рябов)
Аудио #13: Русский (AС3, 2 ch, 192 Кбит/с) / Авторский одноголосый (Сергей Кузнецов)
Аудио #14: Русский (AС3, 6 ch, 384 Кбит/с) / Любительский одноголосый (Кирилл Наумов)
Аудио #15: Английский (AC3, 6 ch, 448 Кбит/с)
Субтитры: Русские (форсированные), русские (Позитив-Мультимедиа), русские (Tycoon), русские (Zhilaev), английские
x264 [info]: frame I:2161 Avg QP:13.85 size: 74175
x264 [info]: frame P:52442 Avg QP:17.28 size: 20435
x264 [info]: frame B:145557 Avg QP:19.48 size: 4817

=============================================

Уникальный идентификатор : 209137464808431357609525043810181984039 (0x9D56691CDED984DFBC80DC2D3E6E2F27)
Полное имя : E:MCBoycovskiy.club.1999.x264.BDRip(AVC)-MediaClubBoycovskiy.club.1999.x264.BDRip(AVC)-MediaClub.mkv
Формат : Matroska
Версия формата : Version 4 / Version 2
Размер файла : 7,59 Гбайт
Продолжительность : 2 ч. 19 м.
Общий поток : 7810 Кбит/сек
Название фильма : -= Release MediaClub =-
Дата кодирования : UTC 2014-02-20 20:29:35
Программа кодирования : mkvmerge v6.4.1 ('Omega Point') built on Sep 16 2013 22:05:10
Библиотека кодирования : libebml v1.3.0 + libmatroska v1.4.1

Видео
Идентификатор : 1
Формат : AVC
Формат/Информация : Advanced Video Codec
Профиль формата : High@L4.1
Параметр CABAC формата : Да
Параметр ReFrames формата : 10 кадров
Идентификатор кодека : V_MPEG4/ISO/AVC
Продолжительность : 2 ч. 19 м.
Битрейт : 1703 Кбит/сек
Номинальный битрейт : 1853 Кбит/сек
Ширина : 1024 пикселя
Высота : 426 пикселей
Соотношение сторон : 2,40:1
Режим частоты кадров : Постоянный
Частота кадров : 23,976 кадра/сек
Цветовое пространство : YUV
Субдискретизация насыщенности : 4:2:0
Битовая глубина : 8 бит
Тип развёртки : Прогрессивная
Бит/(Пиксели*Кадры) : 0.163
Размер потока : 1,65 Гбайт (22%)
Заголовок : Boycovskiy.club.1999.x264.BDRip(AVC)-neni
Библиотека кодирования : x264 core 130 r2273 b3065e6
Настройки программы : cabac=1 / ref=10 / deblock=1:-2:-2 / analyse=0x3:0x113 / me=umh / subme=11 / psy=1 / psy_rd=1.00:0.15 / mixed_ref=1 / me_range=48 / chroma_me=1 / trellis=2 / 8x8dct=1 / cqm=0 / deadzone=21,11 / fast_pskip=0 / chroma_qp_offset=-3 / threads=9 / lookahead_threads=1 / sliced_threads=0 / nr=0 / decimate=0 / interlaced=0 / bluray_compat=0 / constrained_intra=0 / bframes=8 / b_pyramid=2 / b_adapt=2 / b_bias=0 / direct=3 / weightb=1 / open_gop=0 / weightp=2 / keyint=240 / keyint_min=23 / scenecut=40 / intra_refresh=0 / rc=2pass / mbtree=0 / bitrate=1853 / ratetol=1.0 / qcomp=0.60 / qpmin=0 / qpmax=69 / qpstep=4 / cplxblur=20.0 / qblur=0.5 / ip_ratio=1.40 / pb_ratio=1.30 / aq=2:1.20
Язык : English
Default : Да
Forced : Да

Аудио #1
Идентификатор : 2
Формат : AC-3
Формат/Информация : Audio Coding 3
Расширение режима : CM (complete main)
Параметр Endianness формата : Big
Идентификатор кодека : A_AC3
Продолжительность : 2 ч. 19 м.
Вид битрейта : Постоянный
Битрейт : 448 Кбит/сек
Каналы : 6 каналов
Расположение каналов : Front: L C R, Side: L R, LFE
Частота : 48,0 КГц
Битовая глубина : 16 бит
Метод сжатия : С потерями
Размер потока : 446 Мбайт (6%)
Заголовок : (Nevafilm)
Язык : Russian
Default : Да
Forced : Да

Аудио #2
Идентификатор : 3
Формат : AC-3
Формат/Информация : Audio Coding 3
Расширение режима : CM (complete main)
Параметр Endianness формата : Big
Идентификатор кодека : A_AC3
Продолжительность : 2 ч. 19 м.
Вид битрейта : Постоянный
Битрейт : 192 Кбит/сек
Каналы : 2 канала
Расположение каналов : Front: L R
Частота : 48,0 КГц
Битовая глубина : 16 бит
Метод сжатия : С потерями
Размер потока : 191 Мбайт (2%)
Заголовок : (РТР)
Язык : Russian
Default : Нет
Forced : Нет

Аудио #3
Идентификатор : 4
Формат : AC-3
Формат/Информация : Audio Coding 3
Расширение режима : CM (complete main)
Параметр Endianness формата : Big
Идентификатор кодека : A_AC3
Продолжительность : 2 ч. 19 м.
Вид битрейта : Постоянный
Битрейт : 448 Кбит/сек
Каналы : 6 каналов
Расположение каналов : Front: L C R, Side: L R, LFE
Частота : 48,0 КГц
Битовая глубина : 16 бит
Метод сжатия : С потерями
Размер потока : 446 Мбайт (6%)
Заголовок : (Позитив-Мультимедиа / Киномания)
Язык : Russian
Default : Нет
Forced : Нет

Аудио #4
Идентификатор : 5
Формат : AC-3
Формат/Информация : Audio Coding 3
Расширение режима : CM (complete main)
Параметр Endianness формата : Big
Идентификатор кодека : A_AC3
Продолжительность : 2 ч. 19 м.
Вид битрейта : Постоянный
Битрейт : 448 Кбит/сек
Каналы : 6 каналов
Расположение каналов : Front: L C R, Side: L R, LFE
Частота : 48,0 КГц
Битовая глубина : 16 бит
Метод сжатия : С потерями
Размер потока : 446 Мбайт (6%)
Заголовок : (Позитив-Мультимедиа переиздание)
Язык : Russian
Default : Нет
Forced : Нет

Аудио #5
Идентификатор : 6
Формат : AC-3
Формат/Информация : Audio Coding 3
Расширение режима : CM (complete main)
Параметр Endianness формата : Big
Идентификатор кодека : A_AC3
Продолжительность : 2 ч. 19 м.
Вид битрейта : Постоянный
Битрейт : 448 Кбит/сек
Каналы : 6 каналов
Расположение каналов : Front: L C R, Side: L R, LFE
Частота : 48,0 КГц
Битовая глубина : 16 бит
Метод сжатия : С потерями
Размер потока : 446 Мбайт (6%)
Заголовок : (Tycoon)
Язык : Russian
Default : Нет
Forced : Нет

Аудио #6
Идентификатор : 7
Формат : AC-3
Формат/Информация : Audio Coding 3
Расширение режима : CM (complete main)
Параметр Endianness формата : Big
Идентификатор кодека : A_AC3
Продолжительность : 2 ч. 19 м.
Вид битрейта : Постоянный
Битрейт : 448 Кбит/сек
Каналы : 6 каналов
Расположение каналов : Front: L C R, Side: L R, LFE
Частота : 48,0 КГц
Битовая глубина : 16 бит
Метод сжатия : С потерями
Размер потока : 446 Мбайт (6%)
Заголовок : (Карусель)
Язык : Russian
Default : Нет
Forced : Нет

Аудио #7
Идентификатор : 8
Формат : AC-3
Формат/Информация : Audio Coding 3
Расширение режима : CM (complete main)
Параметр Endianness формата : Big
Идентификатор кодека : A_AC3
Продолжительность : 2 ч. 19 м.
Вид битрейта : Постоянный
Битрейт : 448 Кбит/сек
Каналы : 6 каналов
Расположение каналов : Front: L C R, Side: L R, LFE
Частота : 48,0 КГц
Битовая глубина : 16 бит
Метод сжатия : С потерями
Размер потока : 446 Мбайт (6%)
Заголовок : (Андрей Гаврилов)
Язык : Russian
Default : Нет
Forced : Нет

Аудио #8
Идентификатор : 9
Формат : AC-3
Формат/Информация : Audio Coding 3
Расширение режима : CM (complete main)
Параметр Endianness формата : Big
Идентификатор кодека : A_AC3
Продолжительность : 2 ч. 19 м.
Вид битрейта : Постоянный
Битрейт : 448 Кбит/сек
Каналы : 6 каналов
Расположение каналов : Front: L C R, Side: L R, LFE
Частота : 48,0 КГц
Битовая глубина : 16 бит
Метод сжатия : С потерями
Размер потока : 446 Мбайт (6%)
Заголовок : (Владимир Завгородний)
Язык : Russian
Default : Нет
Forced : Нет

Аудио #9
Идентификатор : 10
Формат : AC-3
Формат/Информация : Audio Coding 3
Расширение режима : CM (complete main)
Параметр Endianness формата : Big
Идентификатор кодека : A_AC3
Продолжительность : 2 ч. 19 м.
Вид битрейта : Постоянный
Битрейт : 448 Кбит/сек
Каналы : 6 каналов
Расположение каналов : Front: L C R, Side: L R, LFE
Частота : 48,0 КГц
Битовая глубина : 16 бит
Метод сжатия : С потерями
Размер потока : 446 Мбайт (6%)
Заголовок : (Сергей Визгунов)
Язык : Russian
Default : Нет
Forced : Нет

Аудио #10
Идентификатор : 11
Формат : AC-3
Формат/Информация : Audio Coding 3
Расширение режима : CM (complete main)
Параметр Endianness формата : Big
Идентификатор кодека : A_AC3
Продолжительность : 2 ч. 19 м.
Вид битрейта : Постоянный
Битрейт : 384 Кбит/сек
Каналы : 6 каналов
Расположение каналов : Front: L C R, Side: L R, LFE
Частота : 48,0 КГц
Битовая глубина : 16 бит
Метод сжатия : С потерями
Размер потока : 382 Мбайт (5%)
Заголовок : (Диктор CDV)
Язык : Russian
Default : Нет
Forced : Нет

Аудио #11
Идентификатор : 12
Формат : AC-3
Формат/Информация : Audio Coding 3
Расширение режима : CM (complete main)
Параметр Endianness формата : Big
Идентификатор кодека : A_AC3
Продолжительность : 2 ч. 19 м.
Вид битрейта : Постоянный
Битрейт : 384 Кбит/сек
Каналы : 6 каналов
Расположение каналов : Front: L C R, Side: L R, LFE
Частота : 48,0 КГц
Битовая глубина : 16 бит
Метод сжатия : С потерями
Размер потока : 382 Мбайт (5%)
Заголовок : (Антон Алексеев)
Язык : Russian
Default : Нет
Forced : Нет

Аудио #12
Идентификатор : 13
Формат : AC-3
Формат/Информация : Audio Coding 3
Расширение режима : CM (complete main)
Параметр Endianness формата : Big
Идентификатор кодека : A_AC3
Продолжительность : 2 ч. 19 м.
Вид битрейта : Постоянный
Битрейт : 384 Кбит/сек
Каналы : 6 каналов
Расположение каналов : Front: L C R, Side: L R, LFE
Частота : 48,0 КГц
Битовая глубина : 16 бит
Метод сжатия : С потерями
Размер потока : 382 Мбайт (5%)
Заголовок : (Сергей Рябов)
Язык : Russian
Default : Нет
Forced : Нет

Аудио #13
Идентификатор : 14
Формат : AC-3
Формат/Информация : Audio Coding 3
Расширение режима : CM (complete main)
Параметр Endianness формата : Big
Идентификатор кодека : A_AC3
Продолжительность : 2 ч. 19 м.
Вид битрейта : Постоянный
Битрейт : 192 Кбит/сек
Каналы : 2 канала
Расположение каналов : Front: L R
Частота : 48,0 КГц
Битовая глубина : 16 бит
Метод сжатия : С потерями
Размер потока : 191 Мбайт (2%)
Заголовок : (Сергей Кузнецов)
Язык : Russian
Default : Нет
Forced : Нет

Аудио #14
Идентификатор : 15
Формат : AC-3
Формат/Информация : Audio Coding 3
Расширение режима : CM (complete main)
Параметр Endianness формата : Big
Идентификатор кодека : A_AC3
Продолжительность : 2 ч. 19 м.
Вид битрейта : Постоянный
Битрейт : 384 Кбит/сек
Каналы : 6 каналов
Расположение каналов : Front: L C R, Side: L R, LFE
Частота : 48,0 КГц
Битовая глубина : 16 бит
Метод сжатия : С потерями
Размер потока : 382 Мбайт (5%)
Заголовок : (Кирилл Наумов)
Язык : Russian
Default : Нет
Forced : Нет

Аудио #15
Идентификатор : 16
Формат : AC-3
Формат/Информация : Audio Coding 3
Расширение режима : CM (complete main)
Параметр Endianness формата : Big
Идентификатор кодека : A_AC3
Продолжительность : 2 ч. 19 м.
Вид битрейта : Постоянный
Битрейт : 448 Кбит/сек
Каналы : 6 каналов
Расположение каналов : Front: L C R, Side: L R, LFE
Частота : 48,0 КГц
Битовая глубина : 16 бит
Метод сжатия : С потерями
Размер потока : 446 Мбайт (6%)
Заголовок : (Original)
Язык : English
Default : Нет
Forced : Нет

Текст #1
Идентификатор : 17
Формат : UTF-8
Идентификатор кодека : S_TEXT/UTF8
Идентификатор кодека/Информация : UTF-8 Plain Text
Заголовок : (Forced)
Язык : Russian
Default : Нет
Forced : Нет

Текст #2
Идентификатор : 18
Формат : UTF-8
Идентификатор кодека : S_TEXT/UTF8
Идентификатор кодека/Информация : UTF-8 Plain Text
Заголовок : (Позитив-Мультимедиа)
Язык : Russian
Default : Нет
Forced : Нет

Текст #3
Идентификатор : 19
Формат : UTF-8
Идентификатор кодека : S_TEXT/UTF8
Идентификатор кодека/Информация : UTF-8 Plain Text
Заголовок : (Tycoon)
Язык : Russian
Default : Нет
Forced : Нет

Текст #4
Идентификатор : 20
Формат : UTF-8
Идентификатор кодека : S_TEXT/UTF8
Идентификатор кодека/Информация : UTF-8 Plain Text
Заголовок : [Zhilaev]
Язык : Russian
Default : Нет
Forced : Нет

Текст #5
Идентификатор : 21
Формат : UTF-8
Идентификатор кодека : S_TEXT/UTF8
Идентификатор кодека/Информация : UTF-8 Plain Text
Заголовок : (Original)
Язык : English
Default : Нет
Forced : Нет

Меню
00:00:00.000 : en:Fear Center (Main Titles)
00:02:08.378 : en:Ground Zero
00:03:54.818 : en:Insomnia
00:04:46.328 : en:Nesting Instinct
00:06:21.923 : en:Remaining Men Together
00:10:22.205 : en:Power Animal
00:11:34.903 : en:Marla
00:19:13.569 : en:Single Serving Jack
00:21:41.175 : en:Tyler
00:25:48.005 : en:Jack's Nice Neat Flaming Shit
00:29:09.331 : en:Lament for a Sofa
00:32:27.195 : en:Odd Jobs
00:34:10.465 : en:Hit Me
00:35:57.947 : en:Paper Street
00:41:36.994 : en:Welcome to Fight Club
00:47:18.961 : en:Infectious Human Waste
00:48:37.873 : en:Sport Fucking
01:00:18.281 : en:Tyler's Secret Formula Soap
01:01:56.254 : en:Chemical Burn
01:09:48.434 : en:The Middle Children of History
01:14:57.952 : en:Homework
01:15:47.626 : en:Jack's Smirking Revenge
01:19:35.854 : en:Project Mayhem
01:21:29.468 : en:Human Sacrafice
01:27:38.545 : en:Space Monkeys
01:35:36.981 : en:Psycho Boy
01:37:48.071 : en:A Near-Life Experience
01:41:26.789 : en:Tyler Says Goodbye
01:45:07.468 : en:Operation Latt Thunder
01:47:58.180 : en:Deja Vu
01:50:34.878 : en:Changeover
01:56:53.173 : en:Mea Culpa
02:00:36.813 : en:Castrating Cops
02:05:55.715 : en:Kicking and Screaming
02:09:38.354 : en:Walls of Jericho
02:15:53.979 : en:End Credits

За постер, огромное спасибо команде Media-Art-Club!!!
За исходник спасибо команде HDClub
Релиз от: Rip by



Скачать Бойцовский.клуб.Fight.Club.(Дэвид.Финчер).[1999.триллер.драма.криминал.детектив.боевик.экранизация.BDRip-AVC].[Dub]+[MVO]x5+[AVO]x7+[VO]+[Sub]x5.torrent без регистрации
Золото ЗОЛОТАЯ РАЗДАЧА! СКАЧАННОЕ НЕ ЗАСЧИТЫВАЕТСЯ! Золото
Дата: Зарегистрирован   [ Тип: внутренний ] Как тут cкачать?
MAGNET ссылка
MAGNET ссылка


Скачать .torrent

20 KB

Статус: проверено DHT
Скачан: торрент - 138 раз, раздача полностью - 81 раз
Размер: 7,59 GB
Оценка:  5 (Голосов: 1)
Поблагодарили: 2
Поделиться ссылкой на эту раздачу с друзьями:
В контактеFacebookОдноклассникиTwitterLivejournalМой МирLiveinternet
 

 
Показать сообщения:    


Вы не можете начинать темы
Вы не можете отвечать на сообщения
Вы не можете редактировать свои сообщения
Вы не можете удалять свои сообщения
Вы не можете голосовать в опросах
Вы не можете прикреплять файлы к сообщениям
Вы можете скачивать файлы