Loading...
Error

Скачать Царь горы / King of the Hill (Стивен Содерберг) [1993, драма, история, BDRip] [MVO]+[Sub] торрент без регистрации

 
Статистика раздачи
Размер:  1,61 GB   |    Скачан:  98 раз
Сидов:  1  [  0 KB/s  ]  
 
Автор Сообщение

Marsianka

[] 

Название: Царь горы
Оригинальное название: King of the Hill
Год выпуска: 1993
Жанр: драма, история
Выпущено: США, Bona Fide Productions, Wildwood Enterprises
Режиссер: Стивен Содерберг
В ролях: Джесси Брэдфорд, Йерун Краббе, Лиза Айкхорн, Карен Аллен, Сполдинг Грэй, Элизабет МакГоверн, Камерон Бойд, Эдриан Броуди, Джо Крест, Кристин Гриффит, Кэтрин Хейгл, Джон Дарбин, Джесс Зайглер, Римак Рамсей, Джозеф Патрик Мойнихэн, Мак Такано, Крэйг Хоуксли, Гарри Говерник, Рон Йеркса, Эмбер Бенсон

О фильме: Детство Аарона пришлось на тридцатые годы нашего столетия, годы Великой американской депрессии. Выпавшие на его долю несчастья не могут сломить характер главного героя, а наоборот, закаляют его. Благодаря смекалке и находчивости Аарону удается не только преодолеть трудности, но и во многом преуспеть и многое понять в окружающем мире...

Качество: BDRip
Видео: XviD, 1578 Кбит/с, 720x304
Аудио: Русский (AC3, 2 ch, 192 Кбит/с), английский (AC3, 6 ch, 448 Кбит/с)
Размер: 1.61 ГБ
Продолжительность: 01:43:22
Перевод: Профессиональный многоголосый
Субтитры: Английские (для слабослышащих)

Исходник: Jevgenyc (Кинозал)

Сравнение с исходником

Каннский кинофестиваль, 1993 год
Номинации (1):
Золотая пальмовая ветвь
Общее
Полное имя : E:VideoCar gory.1993.XviD.BDRipCar gory.1993.eng.SDH.srt
Размер файла : 177 Кбайт

Общее
Полное имя : E:VideoCar gory.1993.XviD.BDRipCar gory.1993.Original.eng.ac3
Формат : AC-3
Формат/Информация : Audio Coding 3
Размер файла : 331 Мбайт
Продолжительность : 1 ч. 43 м.
Режим общего битрейта : Постоянный
Общий поток : 448 Кбит/сек

Аудио
Формат : AC-3
Формат/Информация : Audio Coding 3
Расширение режима : CM (complete main)
Параметр Endianness формата : Big
Продолжительность : 1 ч. 43 м.
Вид битрейта : Постоянный
Битрейт : 448 Кбит/сек
Каналы : 6 каналов
Расположение каналов : Front: L C R, Side: L R, LFE
Частота : 48,0 КГц
Битовая глубина : 16 бит
Метод сжатия : С потерями
Размер потока : 331 Мбайт (100%)

Общее
Полное имя : E:VideoCar gory.1993.XviD.BDRipCar gory.1993.XviD.BDRip.avi
Формат : AVI
Формат/Информация : Audio Video Interleave
Размер файла : 1,28 Гбайт
Продолжительность : 1 ч. 43 м.
Общий поток : 1779 Кбит/сек
Программа кодирования : VirtualDubMod 1.5.10.2 (build 2540/release)
Библиотека кодирования : VirtualDubMod build 2540/release

Видео
Идентификатор : 0
Формат : MPEG-4 Visual
Профиль формата : Advanced Simple@L5
Параметр BVOP формата : 1
Параметр QPel формата : Нет
Параметр GMC формата : Без точки перехода
Параметр матрицы формата : Default (H.263)
Режим смешивания : Сжатый битовый поток
Идентификатор кодека : XVID
Идентификатор кодека/Подсказка : XviD
Продолжительность : 1 ч. 43 м.
Битрейт : 1578 Кбит/сек
Ширина : 720 пикселей
Высота : 304 пикселя
Соотношение сторон : 2,35:1
Частота кадров : 23,976 кадра/сек
Цветовое пространство : YUV
Субдискретизация насыщенности : 4:2:0
Битовая глубина : 8 бит
Тип развёртки : Прогрессивная
Метод сжатия : С потерями
Бит/(Пиксели*Кадры) : 0.301
Размер потока : 1,14 Гбайт (89%)
Библиотека кодирования : XviD 1.2.1 (UTC 2008-12-04)

Аудио
Идентификатор : 1
Формат : AC-3
Формат/Информация : Audio Coding 3
Расширение режима : CM (complete main)
Параметр Endianness формата : Big
Идентификатор кодека : 2000
Продолжительность : 1 ч. 43 м.
Вид битрейта : Постоянный
Битрейт : 192 Кбит/сек
Каналы : 2 канала
Расположение каналов : Front: L R
Частота : 48,0 КГц
Битовая глубина : 16 бит
Метод сжатия : С потерями
Размер потока : 142 Мбайт (11%)
Выравнивание : Разделение по промежуткам
Продолжительность промежутка : 42 мс. (1,00 видеокадр)
Время предзагрузки промежутка : 500 мс.



Скачать Царь.горы.King.of.the.Hill.(Стивен.Содерберг).[1993.драма.история.BDRip].[MVO]+[Sub].torrent без регистрации
Золото ЗОЛОТАЯ РАЗДАЧА! СКАЧАННОЕ НЕ ЗАСЧИТЫВАЕТСЯ! Золото
Дата: Зарегистрирован   [ Тип: внутренний ] Как тут cкачать?
MAGNET ссылка
MAGNET ссылка


Скачать .torrent

17 KB

Статус: проверено DHT
Скачан: торрент - 98 раз, раздача полностью - 0 раз
Размер: 1,61 GB
Оценка:  - (Голосов: 0)
Поблагодарили: 1
Поделиться ссылкой на эту раздачу с друзьями:
В контактеFacebookОдноклассникиTwitterLivejournalМой МирLiveinternet
 

 
Показать сообщения:    


Вы не можете начинать темы
Вы не можете отвечать на сообщения
Вы не можете редактировать свои сообщения
Вы не можете удалять свои сообщения
Вы не можете голосовать в опросах
Вы не можете прикреплять файлы к сообщениям
Вы можете скачивать файлы