Loading...
Error

Скачать Пожиратель тыкв / The Pumpkin Eater (Джек Клейтон) [1964, психологическая драма, DVDRip-AVC] [MVO]+[Sub] торрент без регистрации

 
Статистика раздачи
Размер:  1,82 GB   |    Скачан:  110 раз
Сидов:  1  [  0 KB/s  ]  
 
Автор Сообщение

Marsianka

[] 

Информация о фильме
Название: Пожиратель тыкв
Оригинальное название: The Pumpkin Eater
Год выхода: 1964
Жанр: психологическая драма
Режиссер: Джек Клейтон / Jack Clayton
В ролях: Энн Бэнкрофт /Anne Bancroft/, Питер Финч /Peter Finch/, Джеймс Мэйсон /James Mason/, Седрик Хардуик /Cedric Hardwicke/, Ричард Джонсон /Richard Johnson/, Эрик Портер /Eric Porter/

О фильме:
Психоаналитическая драма "Пожиратель тыкв" примечательна прежде всего актерской работой Энн Бэнкрофт ("Золотой Глобус" и приз за лучшую женскую роль на МКФ в Канне). Ее героиня, оставшаяся после двух разводов с шестью детьми, вновь влюбляется и выходит замуж. Вскоре у них с мужем появляется и общий ребенок. Муж (Питер Финч) успешно делает карьеру сценариста, в дом приходит материальный достаток. Через некоторое время у жены на почве ревности начинаются нервные срывы... Британский режиссер Джек Клейтон, прославившийся реалистической драмой "Путь в высшее общество" (1958), умело использовал достоинства литературного первоисточника - одноименного романа Пенелопы Мортимер. Характеры главных героев прописаны психологически убедительно, их поступки достаточно хорошо мотивированы, и при всем этом действие развивается вполне динамично. Так что у вас есть возможность получить немалое удовольствие.

(с) Геннадий Белостоцкий, "Культура"


Страна: Великобритания
Студия: Romulus Films
Продолжительность: 01:45:21.520
Перевод: Профессиональный (многоголосый, закадровый) ГТРК "Культура"

Файл
Кодек: h.264
Качество: DVDRip-AVC
Видео: 720x576 (16:9) @ 1024x576 (анаморф), 25.000 fps, AVC, ~2078 Kbps, 0.200 bits/pixel
Английский, 48.0 KHz, AC3, 2 ch, 192 Kbps (двойное моно)
Русский, 48.0 KHz, AC3, 1 ch, 192 Kbps
Субтитры: Английские, VobSub
Общее
Уникальный идентификатор : 213119925347663451552759181090677005084 (0xA0556793AFAFC88D81DF1D7FD07F1B1C)
Полное имя : D:FilmsPozhiratel_tikv.1964.DVDRip-AVC.mkv
Формат : Matroska
Версия формата : Version 4 / Version 2
Размер файла : 1,82 Гбайт
Продолжительность : 1 ч. 45 м.
Общий поток : 2467 Кбит/сек
Дата кодирования : UTC 2014-02-24 17:51:06
Программа кодирования : mkvmerge v6.7.0 ('Back to the Ground') 64bit built on Jan 8 2014 15:10:52
Библиотека кодирования : libebml v1.3.0 + libmatroska v1.4.1

Видео
Идентификатор : 1
Формат : AVC
Формат/Информация : Advanced Video Codec
Профиль формата : High@L4.1
Параметр CABAC формата : Да
Параметр ReFrames формата : 16 кадров
Идентификатор кодека : V_MPEG4/ISO/AVC
Продолжительность : 1 ч. 45 м.
Битрейт : 2078 Кбит/сек
Ширина : 720 пикселей
Высота : 576 пикселей
Соотношение сторон : 16:9
Режим частоты кадров : Постоянный
Частота кадров : 25,000 кадров/сек
Стандарт вещания : PAL
Цветовое пространство : YUV
Субдискретизация насыщенности : 4:2:0
Битовая глубина : 8 бит
Тип развёртки : Прогрессивная
Бит/(Пиксели*Кадры) : 0.200
Размер потока : 1,50 Гбайт (82%)
Библиотека кодирования : x264 core 138 r2358 9e941d1
Настройки программы : cabac=1 / ref=16 / deblock=1:0:0 / analyse=0x3:0x133 / me=umh / subme=10 / psy=1 / psy_rd=1.10:0.10 / mixed_ref=1 / me_range=32 / chroma_me=1 / trellis=2 / 8x8dct=1 / cqm=0 / deadzone=21,11 / fast_pskip=0 / chroma_qp_offset=-6 / threads=8 / lookahead_threads=2 / sliced_threads=0 / nr=0 / decimate=0 / interlaced=0 / bluray_compat=0 / constrained_intra=0 / bframes=10 / b_pyramid=2 / b_adapt=2 / b_bias=0 / direct=3 / weightb=1 / open_gop=0 / weightp=2 / keyint=250 / keyint_min=25 / scenecut=60 / intra_refresh=0 / rc_lookahead=60 / rc=2pass / mbtree=0 / bitrate=2078 / ratetol=1.0 / qcomp=0.60 / qpmin=0 / qpmax=69 / qpstep=4 / cplxblur=20.0 / qblur=0.5 / vbv_maxrate=50000 / vbv_bufsize=62500 / nal_hrd=none / ip_ratio=1.40 / pb_ratio=1.30 / aq=2:1.00
Default : Нет
Forced : Нет
Коэффициенты матрицы : BT.601

Аудио #1
Идентификатор : 2
Формат : AC-3
Формат/Информация : Audio Coding 3
Расширение режима : CM (complete main)
Параметр Endianness формата : Big
Идентификатор кодека : A_AC3
Продолжительность : 1 ч. 45 м.
Вид битрейта : Постоянный
Битрейт : 192 Кбит/сек
Каналы : 2 канала
Расположение каналов : Front: L R
Частота : 48,0 КГц
Битовая глубина : 16 бит
Метод сжатия : С потерями
Размер потока : 145 Мбайт (8%)
Язык : English
Default : Нет
Forced : Нет

Аудио #2
Идентификатор : 3
Формат : AC-3
Формат/Информация : Audio Coding 3
Расширение режима : CM (complete main)
Параметр Endianness формата : Big
Идентификатор кодека : A_AC3
Продолжительность : 1 ч. 45 м.
Вид битрейта : Постоянный
Битрейт : 192 Кбит/сек
Каналы : 1 канал
Расположение каналов : Front: C
Частота : 48,0 КГц
Битовая глубина : 16 бит
Метод сжатия : С потерями
Размер потока : 145 Мбайт (8%)
Язык : Russian
Default : Да
Forced : Нет

Текст
Идентификатор : 4
Формат : VobSub
Режим смешивания : zlib
Идентификатор кодека : S_VOBSUB
Идентификатор кодека/Информация : The same subtitle format used on DVDs
Язык : English
Default : Нет
Forced : Нет

Меню
00:00:00.000 : en:Chapter 01
00:10:04.040 : en:Chapter 02
00:23:35.760 : en:Chapter 03
00:32:08.160 : en:Chapter 04
00:39:08.240 : en:Chapter 05
00:46:35.800 : en:Chapter 06
00:54:24.520 : en:Chapter 07
01:04:36.920 : en:Chapter 08
01:14:12.240 : en:Chapter 09
01:25:42.280 : en:Chapter 10
01:35:42.320 : en:Chapter 11
01:40:13.320 : en:Chapter 12
Исходник R2, синхронизирована дорожка с хорошим переводом (для ГТРК "Культура"). Релиз от: Temperest



Скачать Пожиратель.тыкв.The.Pumpkin.Eater.(Джек.Клейтон).[1964.психологическая.драма.DVDRip-AVC].[MVO]+[Sub].torrent без регистрации
Золото ЗОЛОТАЯ РАЗДАЧА! СКАЧАННОЕ НЕ ЗАСЧИТЫВАЕТСЯ! Золото
Дата: Зарегистрирован   [ Тип: внутренний ] Как тут cкачать?
MAGNET ссылка
MAGNET ссылка


Скачать .torrent

19 KB

Статус: проверено DHT
Скачан: торрент - 110 раз, раздача полностью - 0 раз
Размер: 1,82 GB
Оценка:  - (Голосов: 0)
Поблагодарили: 1
Поделиться ссылкой на эту раздачу с друзьями:
В контактеFacebookОдноклассникиTwitterLivejournalМой МирLiveinternet
 

 
Показать сообщения:    


Вы не можете начинать темы
Вы не можете отвечать на сообщения
Вы не можете редактировать свои сообщения
Вы не можете удалять свои сообщения
Вы не можете голосовать в опросах
Вы не можете прикреплять файлы к сообщениям
Вы можете скачивать файлы